<?xml version="1.0" standalone="no"?>
<!DOCTYPE svg PUBLIC "-//W3C//DTD SVG 1.1//EN" "http://www.w3.org/Graphics/SVG/1.1/DTD/svg11.dtd" >
<svg>
<metadata>
Created by FontForge 20120731 at Wed Apr 13 10:00:02 2016
 By ,,,
Copyright (c) 2011 by Jan Tonellato. All rights reserved.
</metadata>
<defs>
<font id="Novecentowide-Normal" horiz-adv-x="698" >
  <font-face 
    font-family="Novecento wide Normal"
    font-weight="400"
    font-stretch="expanded"
    units-per-em="1000"
    panose-1="0 0 5 5 0 0 0 0 0 0"
    ascent="850"
    descent="-150"
    x-height="700"
    cap-height="700"
    bbox="-211 -251 1330 937"
    underline-thickness="71"
    underline-position="-96"
    unicode-range="U+0020-25CA"
  />
<missing-glyph horiz-adv-x="687" 
d="M93 85v530q0 39 24 62t61 23h330q37 0 61 -23t24 -62v-530q0 -40 -23.5 -62.5t-61.5 -22.5h-330q-38 0 -61.5 22.5t-23.5 62.5zM190 20h306q38 0 56 17.5t18 58.5v508q0 41 -20 58.5t-64 17.5h-286q-47 0 -65.5 -17t-18.5 -59v-508q0 -76 74 -76zM488 547l54 -54
l-145 -144l145 -145l-55 -54l-144 145l-144 -144l-54 54l144 144l-144 144l54 53l144 -143z" />
    <glyph glyph-name=".notdef" horiz-adv-x="687" 
d="M93 85v530q0 39 24 62t61 23h330q37 0 61 -23t24 -62v-530q0 -40 -23.5 -62.5t-61.5 -22.5h-330q-38 0 -61.5 22.5t-23.5 62.5zM190 20h306q38 0 56 17.5t18 58.5v508q0 41 -20 58.5t-64 17.5h-286q-47 0 -65.5 -17t-18.5 -59v-508q0 -76 74 -76zM488 547l54 -54
l-145 -144l145 -145l-55 -54l-144 145l-144 -144l-54 54l144 144l-144 144l54 53l144 -143z" />
    <glyph glyph-name=".null" horiz-adv-x="0" 
 />
    <glyph glyph-name="nonmarkingreturn" horiz-adv-x="333" 
 />
    <glyph glyph-name="space" unicode=" " horiz-adv-x="250" 
 />
    <glyph glyph-name="exclam" unicode="!" horiz-adv-x="268" 
d="M93 228v472h82v-472h-82zM93 0v157h82v-157h-82z" />
    <glyph glyph-name="quotedbl" unicode="&#x22;" horiz-adv-x="436" 
d="M93 483v217h80v-217h-80zM263 483v217h80v-217h-80z" />
    <glyph glyph-name="numbersign" unicode="#" horiz-adv-x="858" 
d="M794 460h-127l-106 -211h126l-36 -69h-124l-91 -180h-83l92 180h-217l-91 -180h-83l92 180h-117l37 69h115l108 211h-117l37 69h116l87 171h78l-86 -171h220l87 171h77l-86 -171h128zM480 249l108 211h-219l-106 -211h217z" />
    <glyph glyph-name="dollar" unicode="$" horiz-adv-x="596" 
d="M547 527l-78 -21q-11 63 -59.5 99.5t-115.5 36.5q-70 0 -113.5 -31t-43.5 -83q0 -21 10.5 -38.5t24.5 -29t40 -22.5t46 -17.5t52 -16.5q11 -3 17 -5q38 -11 62.5 -20t60 -27t56.5 -38t36.5 -52.5t15.5 -71.5q0 -81 -60 -137t-159 -65v-78h-81v79q-91 11 -149.5 66
t-73.5 137l79 21q8 -65 58.5 -109t132.5 -44q76 0 121.5 36t45.5 92q0 21 -6 38.5t-21 31.5t-27.5 23.5t-38 19.5t-39.5 14.5t-45 13.5t-43 13q-34 11 -52.5 17.5t-50.5 22.5t-49.5 33t-31.5 45.5t-14 63.5q0 74 56.5 125.5t147.5 62.5v78h81v-79q80 -11 136.5 -60.5
t71.5 -123.5z" />
    <glyph glyph-name="percent" unicode="%" horiz-adv-x="892" 
d="M194 301q-81 0 -130.5 58t-49.5 145t49.5 145.5t130.5 58.5t130.5 -58.5t49.5 -145.5t-49.5 -145t-130.5 -58zM177 0l478 700h59l-477 -700h-60zM194 360q54 0 87 42t33 102q0 61 -33 103t-87 42t-87 -42t-33 -103q0 -60 33 -102t87 -42zM698 -8q-81 0 -130.5 58
t-49.5 145t49.5 145.5t130.5 58.5t130.5 -58.5t49.5 -145.5t-49.5 -145t-130.5 -58zM698 51q54 0 87 42t33 102q0 61 -33 103t-87 42t-87 -42t-33 -103q0 -60 33 -102t87 -42z" />
    <glyph glyph-name="ampersand" unicode="&#x26;" horiz-adv-x="709" 
d="M691 395v-66h-130v-82q0 -261 -264 -261q-113 0 -183 58t-70 152q0 70 44 114.5t107 51.5v1q-52 8 -94 48.5t-42 106.5q0 78 58 137t172 59q95 0 161 -52.5t84 -147.5l-71 -20q-36 149 -173 149q-42 0 -72.5 -13t-45.5 -33.5t-21.5 -40.5t-6.5 -40q0 -52 41 -86.5
t116 -34.5h390zM483 250v79h-186q-79 0 -126 -33.5t-47 -98.5q0 -62 48.5 -100.5t124.5 -38.5q101 0 143.5 48t42.5 144z" />
    <glyph glyph-name="quotesingle" unicode="'" horiz-adv-x="266" 
d="M93 483v217h80v-217h-80z" />
    <glyph glyph-name="parenleft" unicode="(" horiz-adv-x="360" 
d="M304 843l24 -76q-103 -36 -152.5 -136.5t-49.5 -281.5t49.5 -282t152.5 -137l-24 -75q-43 15 -80 39.5t-70.5 65t-57.5 94t-38 129t-14 166.5q0 401 260 494z" />
    <glyph glyph-name="parenright" unicode=")" horiz-adv-x="362" 
d="M58 843l-24 -76q103 -36 152.5 -136.5t49.5 -281.5t-49.5 -282t-152.5 -137l24 -75q43 15 80 39.5t70.5 65t57.5 94t38 129t14 166.5q0 401 -260 494z" />
    <glyph glyph-name="asterisk" unicode="*" horiz-adv-x="523" 
d="M412 609l17 -53l-125 -37l79 -107l-44 -33l-78 110l-76 -110l-45 33l78 107l-125 37l18 53l122 -40v131h55v-131z" />
    <glyph glyph-name="plus" unicode="+" 
d="M581 390v-69h-194v-195h-74v195h-195v69h194v192h74v-192h195z" />
    <glyph glyph-name="comma" unicode="," horiz-adv-x="219" 
d="M103 -16l10 5l-10 1q-16 0 -30 13t-14 34t15.5 35t36.5 14t35.5 -16.5t14.5 -42.5q0 -43 -22.5 -85.5t-55.5 -74.5h-36q23 21 39.5 54.5t16.5 62.5z" />
    <glyph glyph-name="hyphen" unicode="-" horiz-adv-x="649" 
d="M93 390h463v-69h-463v69z" />
    <glyph glyph-name="period" unicode="." horiz-adv-x="219" 
d="M110 -13q-21 0 -35.5 14.5t-14.5 34.5q0 21 14.5 35.5t35.5 14.5q20 0 34.5 -15t14.5 -35q0 -21 -14.5 -35t-34.5 -14z" />
    <glyph glyph-name="slash" unicode="/" horiz-adv-x="472" 
d="M18 0l358 700h78l-352 -700h-84z" />
    <glyph glyph-name="zero" unicode="0" horiz-adv-x="718" 
d="M359 714q97 0 170 -51t109 -133t36 -180t-36 -180t-109 -133t-170 -51q-145 0 -230 105.5t-85 258.5t85 258.5t230 105.5zM359 634q-111 0 -171 -81.5t-60 -202.5t60 -202.5t171 -81.5q110 0 170.5 81.5t60.5 202.5t-60.5 202.5t-170.5 81.5z" />
    <glyph glyph-name="one" unicode="1" horiz-adv-x="411" 
d="M260 700h58v-700h-82v475q0 21 1 48t1 43l1 15h-1l-10 -10l-22.5 -25t-21.5 -23l-89 -88l-51 50z" />
    <glyph glyph-name="two" unicode="2" horiz-adv-x="574" 
d="M121 507l-76 21q27 91 93.5 138.5t161.5 47.5q104 0 170.5 -62t66.5 -157q0 -21 -3.5 -41t-7.5 -35.5t-14.5 -34t-16 -29t-22 -27.5t-21.5 -23.5t-25.5 -23.5t-24.5 -20t-27 -20.5t-24 -18.5l-191 -147l1 -1h3q3 0 9 0.5t14 1t19 0.5t23.5 0.5t28.5 0.5h32h246v-77h-486
v67l319 267q85 71 85 160q0 64 -43.5 105.5t-112.5 41.5q-70 0 -115 -36t-62 -98z" />
    <glyph glyph-name="three" unicode="3" horiz-adv-x="597" 
d="M132 506l-74 20q20 88 85.5 138t162.5 50q117 0 177.5 -56t60.5 -133q0 -69 -45.5 -113.5t-106.5 -47.5v-1q66 -2 113.5 -45t47.5 -116q0 -97 -69 -156.5t-177 -59.5q-99 0 -173 55.5t-90 144.5l74 20q11 -66 62.5 -106t124.5 -40q77 0 120.5 41.5t43.5 104.5
q0 60 -45.5 91.5t-123.5 31.5h-62v67h63q159 0 159 125q0 47 -39 83.5t-119 36.5q-133 0 -170 -135z" />
    <glyph glyph-name="four" unicode="4" horiz-adv-x="628" 
d="M591 249v-73h-95v-176h-77v176h-375v59l388 465h64v-451h95zM255 249h164v186v33.5t0.5 31.5t0.5 27.5t0.5 24t1 18t0.5 12.5v4h-1l-11 -14q-10 -13 -29 -38t-36 -45l-144 -171q-21 -24 -37 -41.5t-20 -22.5l-5 -5l1 -1h22t47.5 0.5t45.5 0.5z" />
    <glyph glyph-name="five" unicode="5" horiz-adv-x="587" 
d="M152 397l1 -1q17 23 57.5 42t92.5 19q106 0 176.5 -66t70.5 -167q0 -102 -70.5 -170t-176.5 -68q-102 0 -171 54t-87 139l75 20q13 -63 60 -102t121 -39q72 0 119.5 47.5t47.5 119.5t-47.5 119.5t-119.5 47.5q-120 0 -157 -88l-71 19l61 377h374v-77h-312l-19 -107
q-6 -33 -12.5 -62.5t-9.5 -43.5z" />
    <glyph glyph-name="six" unicode="6" horiz-adv-x="593" 
d="M404 700l-223 -294l1 -1q48 59 137 59q109 0 177 -68.5t68 -170.5q0 -104 -74 -171.5t-187 -67.5q-112 0 -185.5 68t-73.5 175q0 65 23 120.5t74 123.5l173 227h90zM306 59q79 0 128.5 47t51.5 123q1 74 -48.5 120t-131.5 46q-81 0 -130.5 -46t-49.5 -120q0 -76 50 -123
t130 -47z" />
    <glyph glyph-name="seven" unicode="7" horiz-adv-x="555" 
d="M34 700h499v-50l-365 -650h-88l294 519q13 24 29.5 50t26.5 41l9 14l-1 1h-6q-6 0 -16.5 -0.5t-22 -1t-25.5 -0.5h-25h-309v77z" />
    <glyph glyph-name="eight" unicode="8" horiz-adv-x="610" 
d="M398 373v-1q68 -8 118 -56.5t50 -122.5q0 -91 -72.5 -148.5t-188.5 -58.5q-116 1 -188.5 58.5t-72.5 148.5q0 75 50.5 123.5t117.5 55.5v1q-42 4 -89.5 47t-47.5 110q0 78 64.5 131t165.5 53t165.5 -53t64.5 -131q0 -67 -47.5 -110t-89.5 -47zM147 527q0 -53 44 -86.5
t114 -32.5q70 0 114 33.5t44 85.5q0 55 -44.5 90t-113.5 35q-70 0 -114 -35t-44 -90zM122 195q0 -65 49.5 -103.5t133.5 -39.5q84 1 133.5 39.5t49.5 103.5q0 63 -50 100t-133 37q-84 0 -133.5 -37t-49.5 -100z" />
    <glyph glyph-name="nine" unicode="9" horiz-adv-x="599" 
d="M167 0l252 294l-1 1q-51 -59 -139 -59q-116 0 -183 67.5t-67 169.5q0 108 75 174.5t189 66.5t188 -64.5t74 -179.5q0 -67 -31.5 -133.5t-105.5 -153.5l-157 -183h-94zM291 641q-77 0 -129.5 -44t-52.5 -127q0 -81 52.5 -123.5t129.5 -42.5q79 0 130.5 44.5t51.5 121.5
q0 84 -52 127.5t-130 43.5z" />
    <glyph glyph-name="colon" unicode=":" horiz-adv-x="219" 
d="M110 297q-21 0 -35.5 14.5t-14.5 34.5q0 21 14.5 35.5t35.5 14.5q20 0 34.5 -15t14.5 -35q0 -21 -14.5 -35t-34.5 -14zM110 -13q-21 0 -35.5 14.5t-14.5 34.5q0 21 14.5 35.5t35.5 14.5q20 0 34.5 -15t14.5 -35q0 -21 -14.5 -35t-34.5 -14z" />
    <glyph glyph-name="semicolon" unicode=";" horiz-adv-x="234" 
d="M122 297q-21 0 -35.5 14.5t-14.5 34.5q0 21 14.5 35.5t35.5 14.5q20 0 34.5 -15t14.5 -35q0 -21 -14.5 -35t-34.5 -14zM116 -18l10 5l-10 1q-16 0 -30 13t-14 34t15.5 35t36.5 14t35.5 -16.5t14.5 -42.5q0 -43 -22.5 -85.5t-55.5 -74.5h-36q23 21 39.5 54.5t16.5 62.5z
" />
    <glyph glyph-name="less" unicode="&#x3c;" 
d="M576 123l-352 244l352 244h-107l-357 -244l357 -244h107z" />
    <glyph glyph-name="equal" unicode="=" 
d="M118 480h463v-69h-463v69zM118 293h463v-69h-463v69z" />
    <glyph glyph-name="greater" unicode="&#x3e;" 
d="M122 123l352 244l-352 244h107l357 -244l-357 -244h-107z" />
    <glyph glyph-name="question" unicode="?" horiz-adv-x="573" 
d="M234 228v101q119 53 165 92.5t46 93.5q0 50 -36 87.5t-117 37.5q-142 0 -179 -134l-69 20q20 88 86.5 138t163.5 50q118 0 177 -56.5t59 -139.5q0 -44 -17.5 -79t-52 -62t-65.5 -44t-78 -37v-68h-83zM234 0v157h83v-157h-83z" />
    <glyph glyph-name="at" unicode="@" horiz-adv-x="795" 
d="M503 531h57v-268q0 -31 15 -49.5t40 -18.5q40 0 62 44.5t22 112.5q0 135 -86 224t-216 89t-215.5 -88.5t-85.5 -224.5t86 -228t215 -92q42 0 77 6.5t56.5 16.5t36.5 19.5t22.5 16t8.5 6.5l40 -22q-2 -3 -10 -11.5t-28 -22.5t-46 -25.5t-68 -20.5t-89 -9
q-152 0 -252.5 105.5t-100.5 260.5q0 156 100 259t253 103t253.5 -103t100.5 -259q0 -85 -37 -143.5t-104 -58.5q-39 0 -67 24t-32 66l-1 1q-14 -37 -52.5 -63t-81.5 -26q-79 0 -129.5 54t-50.5 139q0 90 50.5 147t132.5 57q37 0 67 -14.5t42.5 -28.5t13.5 -22h1v47z
M503 343v45q1 49 -34 75.5t-84 26.5q-55 0 -90 -39t-34 -105q0 -62 35.5 -97.5t88.5 -35.5q50 0 83.5 34.5t34.5 95.5z" />
    <glyph glyph-name="A" unicode="A" horiz-adv-x="719" 
d="M613 0l-78 183h-351l-78 -183h-88l304 700h75l304 -700h-88zM215 256h289l-111 260q-6 15 -14.5 37t-13.5 35l-5 13h-1l-5 -13q-5 -13 -13.5 -35t-14.5 -37z" />
    <glyph glyph-name="B" unicode="B" horiz-adv-x="647" 
d="M93 700h263q90 0 146 -48t56 -124q0 -51 -36 -92.5t-80 -50.5v-1q57 -8 109 -58t52 -120q0 -93 -61.5 -149.5t-169.5 -56.5h-279v700zM175 409h165q59 0 97.5 32.5t38.5 78.5q0 49 -37.5 79t-98.5 30h-165v-220zM175 71h192q66 0 108.5 37t42.5 99q0 59 -45.5 98
t-110.5 39h-187v-273z" />
    <glyph glyph-name="C" unicode="C" horiz-adv-x="761" 
d="M725 530l-83 -21q-36 58 -99 91.5t-136 33.5q-121 0 -200 -79t-79 -205q0 -125 80 -204t199 -79q80 0 146 39.5t101 105.5l81 -22q-44 -94 -131.5 -149t-196.5 -55q-152 0 -257.5 103.5t-105.5 260.5t105.5 260.5t257.5 103.5q102 0 186 -49.5t132 -134.5z" />
    <glyph glyph-name="D" unicode="D" horiz-adv-x="794" 
d="M93 700h295q153 0 257.5 -99.5t104.5 -254.5q0 -152 -103 -249t-253 -97h-301v700zM175 77h219q114 0 193 74t79 195q0 124 -80.5 200.5t-197.5 76.5h-213v-546z" />
    <glyph glyph-name="E" unicode="E" horiz-adv-x="629" 
d="M175 77h391v-77h-473v700h467v-77h-385v-216h309v-73h-309v-257z" />
    <glyph glyph-name="F" unicode="F" horiz-adv-x="584" 
d="M550 623h-375v-237h299v-74h-299v-312h-82v700h457v-77z" />
    <glyph glyph-name="G" unicode="G" horiz-adv-x="795" 
d="M664 104h-1q-35 -43 -101 -80.5t-155 -37.5q-152 0 -257.5 103.5t-105.5 260.5t105.5 260.5t257.5 103.5q106 -2 188.5 -51t129.5 -133l-83 -21q-36 58 -99 91.5t-136 33.5q-121 0 -200 -79t-79 -205t80.5 -205t201.5 -79q94 0 162 44t92 97v87h-214v68h285v-363h-72v25
v21v17t0.5 14t0.5 10.5v8v5.5v3v1z" />
    <glyph glyph-name="H" unicode="H" horiz-adv-x="733" 
d="M558 700h81v-700h-81v324h-383v-324h-82v700h82v-299h383v299z" />
    <glyph glyph-name="I" unicode="I" horiz-adv-x="268" 
d="M175 0h-82v700h82v-700z" />
    <glyph glyph-name="J" unicode="J" horiz-adv-x="655" 
d="M499 700h82v-410q0 -144 -77 -224.5t-216 -80.5q-97 0 -171.5 50.5t-102.5 130.5l81 22q21 -59 73 -92.5t120 -33.5q102 0 156.5 59t54.5 164v415z" />
    <glyph glyph-name="K" unicode="K" horiz-adv-x="689" 
d="M651 0h-97l-265 359l-114 -114v-245h-82v700h82v-187q0 -47 -0.5 -93.5t-0.5 -56.5v-19h1l17 18q17 17 47 47.5t53 53.5l237 237h101l-286 -286z" />
    <glyph glyph-name="L" unicode="L" horiz-adv-x="570" 
d="M175 77h375v-77h-457v700h82v-623z" />
    <glyph glyph-name="M" unicode="M" horiz-adv-x="833" 
d="M663 700h77v-700h-81v315q0 47 1 109.5t2 99.5l1 38h-1l-10 -17q-10 -17 -25.5 -44t-25.5 -45l-163 -284h-43l-163 284q-10 18 -25.5 45t-25.5 44l-10 17h-1l1 -38q1 -37 2 -99.5t1 -109.5v-315h-81v700h77l174 -296q26 -45 44 -78t23 -42l5 -10h1l5 10q5 9 23 42t44 78z
" />
    <glyph glyph-name="N" unicode="N" horiz-adv-x="760" 
d="M585 700h82v-700h-77l-311 419q-25 35 -52 73t-40 56l-13 18h-1l1 -24q0 -25 0.5 -76t0.5 -99v-367h-82v700h77l311 -418q23 -30 49.5 -67t41.5 -57l14 -20h1l-1 26q0 26 -0.5 76t-0.5 92v368z" />
    <glyph glyph-name="O" unicode="O" horiz-adv-x="814" 
d="M44 350q0 157 105.5 260.5t257.5 103.5q153 0 258.5 -103.5t105.5 -260.5t-105.5 -260.5t-258.5 -103.5q-152 0 -257.5 103.5t-105.5 260.5zM128 350q0 -125 79.5 -204.5t199.5 -79.5t199.5 79.5t79.5 204.5q0 126 -79.5 205t-199.5 79q-121 0 -200 -79t-79 -205z" />
    <glyph glyph-name="P" unicode="P" horiz-adv-x="598" 
d="M93 700h215q122 0 191 -59.5t69 -163.5t-69.5 -164t-190.5 -60h-133v-253h-82v700zM175 330h131q85 0 131.5 39t46.5 108q0 70 -47.5 108t-130.5 38h-131v-293z" />
    <glyph glyph-name="Q" unicode="Q" horiz-adv-x="814" 
d="M365 -132v120q-138 15 -229.5 116t-91.5 246q0 157 105.5 260.5t257.5 103.5q153 0 258.5 -103.5t105.5 -260.5q0 -146 -92.5 -247t-231.5 -115v-120h-82zM407 66q120 0 199.5 79.5t79.5 204.5q0 126 -79.5 205t-199.5 79q-121 0 -200 -79t-79 -205q0 -125 79.5 -204.5
t199.5 -79.5z" />
    <glyph glyph-name="R" unicode="R" horiz-adv-x="637" 
d="M592 0h-92l-158 262q-11 -1 -36 -1h-131v-261h-82v700h213q122 0 192 -59.5t70 -161.5q0 -75 -38 -126.5t-108 -74.5zM175 334h139q82 0 126 40t44 105q0 67 -45 105.5t-125 38.5h-139v-289z" />
    <glyph glyph-name="S" unicode="S" horiz-adv-x="596" 
d="M547 527l-78 -21q-11 63 -59.5 99.5t-115.5 36.5q-70 0 -113.5 -31t-43.5 -83q0 -21 10.5 -38.5t24.5 -29t40 -22.5t46 -17.5t52 -16.5q11 -3 17 -5q38 -11 62.5 -20t60 -27t56.5 -38t36.5 -52.5t15.5 -71.5q0 -89 -71 -146.5t-185 -57.5q-109 0 -179.5 57t-87.5 149
l79 21q8 -65 58.5 -109t132.5 -44q76 0 121.5 36t45.5 92q0 21 -6 38.5t-21 31.5t-27.5 23.5t-38 19.5t-39.5 14.5t-45 13.5t-43 13q-34 11 -52.5 17.5t-50.5 22.5t-49.5 33t-31.5 45.5t-14 63.5q0 82 69 136t174 54q95 0 164 -51.5t86 -135.5z" />
    <glyph glyph-name="T" unicode="T" horiz-adv-x="594" 
d="M22 700h550v-77h-235v-623h-81v623h-234v77z" />
    <glyph glyph-name="U" unicode="U" horiz-adv-x="723" 
d="M567 700h82v-410q0 -148 -75 -226.5t-213 -78.5t-212.5 78.5t-74.5 226.5v410h82v-411q0 -227 205 -227q206 0 206 227v411z" />
    <glyph glyph-name="V" unicode="V" horiz-adv-x="718" 
d="M611 700h88l-299 -700h-83l-299 700h89l211 -501q9 -21 19 -48.5t15 -42.5l6 -16h1l6 15q6 15 16 43.5t18 48.5z" />
    <glyph glyph-name="W" unicode="W" horiz-adv-x="980" 
d="M869 700h85l-237 -700h-72l-116 368q-14 43 -23.5 78t-12.5 47l-3 12h-1l-3 -13q-3 -12 -12 -46.5t-23 -77.5l-116 -368h-72l-237 700h85l158 -473q8 -26 15.5 -52t11.5 -38l3 -12h1l3 12q3 12 10.5 38t16.5 52l124 379h72l124 -379q9 -26 16.5 -52t10.5 -38l3 -12h1
l3 12q4 12 11.5 38t15.5 52z" />
    <glyph glyph-name="X" unicode="X" horiz-adv-x="668" 
d="M335 298h-1l-8 -12q-8 -12 -19.5 -30t-19.5 -28l-172 -228h-99l268 363l-247 337h99l154 -209q4 -6 15.5 -23.5t20.5 -29.5l8 -13h1l9 13q8 13 19 29.5t15 23.5l154 209h100l-248 -337l268 -363h-99l-172 228q-8 10 -19.5 28t-19.5 30z" />
    <glyph glyph-name="Y" unicode="Y" horiz-adv-x="656" 
d="M546 700h94l-272 -356v-344h-81v344l-271 356h93l176 -229q6 -8 18 -23.5t19 -23.5l6 -8h1q1 0 42 55z" />
    <glyph glyph-name="Z" unicode="Z" horiz-adv-x="690" 
d="M630 700v-76l-410 -491q-13 -15 -26 -29.5t-20 -21.5l-6 -7l1 -1h5q4 1 12.5 1.5t19 0.5t25 0.5t28.5 0.5h371v-77h-570v76l416 494q9 10 22 23.5t22 22.5l9 8l-1 1h-4q-5 0 -13.5 -0.5t-19 -1t-25 -0.5h-29.5h-367v77h560z" />
    <glyph glyph-name="bracketleft" unicode="[" horiz-adv-x="339" 
d="M177 779v-853h134v-77h-218v1007h218v-77h-134z" />
    <glyph glyph-name="backslash" unicode="\" horiz-adv-x="472" 
d="M454 0l-358 700h-78l353 -700h83z" />
    <glyph glyph-name="bracketright" unicode="]" horiz-adv-x="349" 
d="M172 779v-853h-134v-77h218v1007h-218v-77h134z" />
    <glyph glyph-name="asciicircum" unicode="^" horiz-adv-x="655" 
d="M561 477l-40 -38l-193 199l-194 -199l-41 38l234 235l37 -37z" />
    <glyph glyph-name="underscore" unicode="_" horiz-adv-x="762" 
d="M93 0h576v-64h-576v64z" />
    <glyph glyph-name="grave" unicode="`" horiz-adv-x="307" 
d="M244 738l-219 104l31 58l214 -116z" />
    <glyph glyph-name="a" unicode="a" horiz-adv-x="719" 
d="M613 0l-78 183h-351l-78 -183h-88l304 700h75l304 -700h-88zM215 256h289l-111 260q-6 15 -14.5 37t-13.5 35l-5 13h-1l-5 -13q-5 -13 -13.5 -35t-14.5 -37z" />
    <glyph glyph-name="b" unicode="b" horiz-adv-x="647" 
d="M93 700h263q90 0 146 -48t56 -124q0 -51 -36 -92.5t-80 -50.5v-1q57 -8 109 -58t52 -120q0 -93 -61.5 -149.5t-169.5 -56.5h-279v700zM175 409h165q59 0 97.5 32.5t38.5 78.5q0 49 -37.5 79t-98.5 30h-165v-220zM175 71h192q66 0 108.5 37t42.5 99q0 59 -45.5 98
t-110.5 39h-187v-273z" />
    <glyph glyph-name="c" unicode="c" horiz-adv-x="761" 
d="M725 530l-83 -21q-36 58 -99 91.5t-136 33.5q-121 0 -200 -79t-79 -205q0 -125 80 -204t199 -79q80 0 146 39.5t101 105.5l81 -22q-44 -94 -131.5 -149t-196.5 -55q-152 0 -257.5 103.5t-105.5 260.5t105.5 260.5t257.5 103.5q102 0 186 -49.5t132 -134.5z" />
    <glyph glyph-name="d" unicode="d" horiz-adv-x="794" 
d="M93 700h295q153 0 257.5 -99.5t104.5 -254.5q0 -152 -103 -249t-253 -97h-301v700zM175 77h219q114 0 193 74t79 195q0 124 -80.5 200.5t-197.5 76.5h-213v-546z" />
    <glyph glyph-name="e" unicode="e" horiz-adv-x="629" 
d="M175 77h391v-77h-473v700h467v-77h-385v-216h309v-73h-309v-257z" />
    <glyph glyph-name="f" unicode="f" horiz-adv-x="584" 
d="M550 623h-375v-237h299v-74h-299v-312h-82v700h457v-77z" />
    <glyph glyph-name="g" unicode="g" horiz-adv-x="795" 
d="M664 104h-1q-35 -43 -101 -80.5t-155 -37.5q-152 0 -257.5 103.5t-105.5 260.5t105.5 260.5t257.5 103.5q106 -2 188.5 -51t129.5 -133l-83 -21q-36 58 -99 91.5t-136 33.5q-121 0 -200 -79t-79 -205t80.5 -205t201.5 -79q94 0 162 44t92 97v87h-214v68h285v-363h-72v25
v21v17t0.5 14t0.5 10.5v8v5.5v3v1z" />
    <glyph glyph-name="h" unicode="h" horiz-adv-x="733" 
d="M558 700h81v-700h-81v324h-383v-324h-82v700h82v-299h383v299z" />
    <glyph glyph-name="i" unicode="i" horiz-adv-x="268" 
d="M175 0h-82v700h82v-700z" />
    <glyph glyph-name="j" unicode="j" horiz-adv-x="655" 
d="M499 700h82v-410q0 -144 -77 -224.5t-216 -80.5q-97 0 -171.5 50.5t-102.5 130.5l81 22q21 -59 73 -92.5t120 -33.5q102 0 156.5 59t54.5 164v415z" />
    <glyph glyph-name="k" unicode="k" horiz-adv-x="689" 
d="M651 0h-97l-265 359l-114 -114v-245h-82v700h82v-187q0 -47 -0.5 -93.5t-0.5 -56.5v-19h1l17 18q17 17 47 47.5t53 53.5l237 237h101l-286 -286z" />
    <glyph glyph-name="l" unicode="l" horiz-adv-x="570" 
d="M175 77h375v-77h-457v700h82v-623z" />
    <glyph glyph-name="m" unicode="m" horiz-adv-x="833" 
d="M663 700h77v-700h-81v315q0 47 1 109.5t2 99.5l1 38h-1l-10 -17q-10 -17 -25.5 -44t-25.5 -45l-163 -284h-43l-163 284q-10 18 -25.5 45t-25.5 44l-10 17h-1l1 -38q1 -37 2 -99.5t1 -109.5v-315h-81v700h77l174 -296q26 -45 44 -78t23 -42l5 -10h1l5 10q5 9 23 42t44 78z
" />
    <glyph glyph-name="n" unicode="n" horiz-adv-x="760" 
d="M585 700h82v-700h-77l-311 419q-25 35 -52 73t-40 56l-13 18h-1l1 -24q0 -25 0.5 -76t0.5 -99v-367h-82v700h77l311 -418q23 -30 49.5 -67t41.5 -57l14 -20h1l-1 26q0 26 -0.5 76t-0.5 92v368z" />
    <glyph glyph-name="o" unicode="o" horiz-adv-x="814" 
d="M44 350q0 157 105.5 260.5t257.5 103.5q153 0 258.5 -103.5t105.5 -260.5t-105.5 -260.5t-258.5 -103.5q-152 0 -257.5 103.5t-105.5 260.5zM128 350q0 -125 79.5 -204.5t199.5 -79.5t199.5 79.5t79.5 204.5q0 126 -79.5 205t-199.5 79q-121 0 -200 -79t-79 -205z" />
    <glyph glyph-name="p" unicode="p" horiz-adv-x="598" 
d="M93 700h215q122 0 191 -59.5t69 -163.5t-69.5 -164t-190.5 -60h-133v-253h-82v700zM175 330h131q85 0 131.5 39t46.5 108q0 70 -47.5 108t-130.5 38h-131v-293z" />
    <glyph glyph-name="q" unicode="q" horiz-adv-x="814" 
d="M365 -132v120q-138 15 -229.5 116t-91.5 246q0 157 105.5 260.5t257.5 103.5q153 0 258.5 -103.5t105.5 -260.5q0 -146 -92.5 -247t-231.5 -115v-120h-82zM407 66q120 0 199.5 79.5t79.5 204.5q0 126 -79.5 205t-199.5 79q-121 0 -200 -79t-79 -205q0 -125 79.5 -204.5
t199.5 -79.5z" />
    <glyph glyph-name="r" unicode="r" horiz-adv-x="637" 
d="M592 0h-92l-158 262q-11 -1 -36 -1h-131v-261h-82v700h213q122 0 192 -59.5t70 -161.5q0 -75 -38 -126.5t-108 -74.5zM175 334h139q82 0 126 40t44 105q0 67 -45 105.5t-125 38.5h-139v-289z" />
    <glyph glyph-name="s" unicode="s" horiz-adv-x="596" 
d="M547 527l-78 -21q-11 63 -59.5 99.5t-115.5 36.5q-70 0 -113.5 -31t-43.5 -83q0 -21 10.5 -38.5t24.5 -29t40 -22.5t46 -17.5t52 -16.5q11 -3 17 -5q38 -11 62.5 -20t60 -27t56.5 -38t36.5 -52.5t15.5 -71.5q0 -89 -71 -146.5t-185 -57.5q-109 0 -179.5 57t-87.5 149
l79 21q8 -65 58.5 -109t132.5 -44q76 0 121.5 36t45.5 92q0 21 -6 38.5t-21 31.5t-27.5 23.5t-38 19.5t-39.5 14.5t-45 13.5t-43 13q-34 11 -52.5 17.5t-50.5 22.5t-49.5 33t-31.5 45.5t-14 63.5q0 82 69 136t174 54q95 0 164 -51.5t86 -135.5z" />
    <glyph glyph-name="t" unicode="t" horiz-adv-x="594" 
d="M22 700h550v-77h-235v-623h-81v623h-234v77z" />
    <glyph glyph-name="u" unicode="u" horiz-adv-x="723" 
d="M567 700h82v-410q0 -148 -75 -226.5t-213 -78.5t-212.5 78.5t-74.5 226.5v410h82v-411q0 -227 205 -227q206 0 206 227v411z" />
    <glyph glyph-name="v" unicode="v" horiz-adv-x="718" 
d="M611 700h88l-299 -700h-83l-299 700h89l211 -501q9 -21 19 -48.5t15 -42.5l6 -16h1l6 15q6 15 16 43.5t18 48.5z" />
    <glyph glyph-name="w" unicode="w" horiz-adv-x="980" 
d="M869 700h85l-237 -700h-72l-116 368q-14 43 -23.5 78t-12.5 47l-3 12h-1l-3 -13q-3 -12 -12 -46.5t-23 -77.5l-116 -368h-72l-237 700h85l158 -473q8 -26 15.5 -52t11.5 -38l3 -12h1l3 12q3 12 10.5 38t16.5 52l124 379h72l124 -379q9 -26 16.5 -52t10.5 -38l3 -12h1
l3 12q4 12 11.5 38t15.5 52z" />
    <glyph glyph-name="x" unicode="x" horiz-adv-x="668" 
d="M335 298h-1l-8 -12q-8 -12 -19.5 -30t-19.5 -28l-172 -228h-99l268 363l-247 337h99l154 -209q4 -6 15.5 -23.5t20.5 -29.5l8 -13h1l9 13q8 13 19 29.5t15 23.5l154 209h100l-248 -337l268 -363h-99l-172 228q-8 10 -19.5 28t-19.5 30z" />
    <glyph glyph-name="y" unicode="y" horiz-adv-x="656" 
d="M546 700h94l-272 -356v-344h-81v344l-271 356h93l176 -229q6 -8 18 -23.5t19 -23.5l6 -8h1q1 0 42 55z" />
    <glyph glyph-name="z" unicode="z" horiz-adv-x="690" 
d="M630 700v-76l-410 -491q-13 -15 -26 -29.5t-20 -21.5l-6 -7l1 -1h5q4 1 12.5 1.5t19 0.5t25 0.5t28.5 0.5h371v-77h-570v76l416 494q9 10 22 23.5t22 22.5l9 8l-1 1h-4q-5 0 -13.5 -0.5t-19 -1t-25 -0.5h-29.5h-367v77h560z" />
    <glyph glyph-name="braceleft" unicode="{" horiz-adv-x="390" 
d="M240 628v-117q0 -128 -54 -159q4 -2 8.5 -5.5t13.5 -15t15.5 -27.5t11.5 -45.5t5 -66.5v-116q0 -159 134 -159v-76q-103 0 -159 57.5t-56 174.5v125q0 38 -7 67.5t-16.5 45t-19 25.5t-16.5 13l-7 3q3 1 7.5 3t15.5 12.5t20 25.5t16 45t7 68v125q0 117 56 174.5t159 57.5
v-76q-134 0 -134 -159z" />
    <glyph glyph-name="bar" unicode="|" horiz-adv-x="254" 
d="M161 -74h-68v849h68v-849z" />
    <glyph glyph-name="braceright" unicode="}" horiz-adv-x="390" 
d="M150 628v-117q0 -128 54 -159q-4 -2 -8.5 -5.5t-13.5 -15t-15.5 -27.5t-11.5 -45.5t-5 -66.5v-116q0 -159 -134 -159v-76q103 0 159 57.5t56 174.5v125q0 38 7 67.5t16.5 45t19 25.5t16.5 13l7 3q-3 1 -7.5 3t-15.5 12.5t-20 25.5t-16 45t-7 68v125q0 117 -56 174.5
t-159 57.5v-76q134 0 134 -159z" />
    <glyph glyph-name="asciitilde" unicode="~" 
d="M511 408l70 -19q-7 -50 -44.5 -78t-86.5 -28q-45 0 -102.5 37t-83.5 37q-34 0 -52 -17.5t-20 -44.5l-69 18q7 51 45 79t87 28q36 0 70 -19t63 -37.5t52 -18.5q32 0 50.5 18.5t20.5 44.5z" />
    <glyph glyph-name="exclamdown" unicode="&#xa1;" horiz-adv-x="268" 
d="M93 700h82v-157h-82v157zM93 472h82v-472h-82v472z" />
    <glyph glyph-name="cent" unicode="&#xa2;" horiz-adv-x="567" 
d="M471 261l70 -20q-26 -62 -81 -102.5t-124 -48.5v-104h-67v104q-97 12 -161 84.5t-64 175.5q0 102 64 174t160 85v105h68v-105q65 -8 117.5 -44.5t80.5 -92.5l-71 -19q-52 87 -160 87q-81 0 -132 -52t-51 -138t51 -138t132 -52q57 0 101 26.5t67 74.5z" />
    <glyph glyph-name="sterling" unicode="&#xa3;" horiz-adv-x="656" 
d="M408 77h203v-77h-518v77q58 12 74.5 56.5t8.5 132.5l-5 56h-72v67h66l-9 103q-9 92 52 156t155 66q49 1 93.5 -14.5t86.5 -60.5t59 -114l-71 -19q-41 140 -166 135q-63 -2 -98.5 -46t-29.5 -109l9 -97h235v-67h-229l5 -54q14 -157 -54 -193l1 -1h6q6 0 16.5 0.5t24.5 1
t32 0.5t37.5 0.5t42.5 0.5h45z" />
    <glyph glyph-name="currency" unicode="&#xa4;" horiz-adv-x="654" 
d="M486 549l72 71l42 -43l-71 -71q61 -71 61 -166q0 -90 -55 -159l73 -73l-43 -43l-72 73q-74 -61 -167 -61q-91 0 -165 61l-73 -73l-42 43l73 73q-55 71 -55 159q0 94 60 167l-71 70l43 43l72 -71q71 55 158 55q91 0 160 -55zM327 532q-79 0 -133.5 -55t-54.5 -135
q0 -81 54.5 -135.5t133.5 -54.5t134 54.5t55 135.5q0 79 -55 134.5t-134 55.5z" />
    <glyph glyph-name="yen" unicode="&#xa5;" horiz-adv-x="655" 
d="M640 700l-209 -274h142v-59h-187l-18 -23v-16h205v-59h-205v-269h-81v269h-198v59h198v16l-18 23h-180v59h136l-209 274h93l176 -229q6 -8 18 -23.5t19 -23.5l6 -8h1q1 0 42 55l175 229h94z" />
    <glyph glyph-name="brokenbar" unicode="&#xa6;" horiz-adv-x="254" 
d="M93 775h68v-280h-68v280zM93 216h68v-290h-68v290z" />
    <glyph glyph-name="section" unicode="&#xa7;" horiz-adv-x="526" 
d="M477 587l-69 -18q-8 43 -47 67t-95 24q-57 0 -92.5 -20t-35.5 -53q0 -9 2.5 -16.5t8.5 -13.5t12 -11t17 -9.5t19.5 -8t22.5 -7t23.5 -6t25.5 -6.5t25 -6q33 -8 52 -14t49.5 -19t47.5 -27t30 -36.5t13 -49.5q0 -77 -101 -104q102 -42 102 -121q0 -65 -61.5 -106.5
t-161.5 -41.5q-94 0 -153.5 41.5t-75.5 107.5l68 18q9 -48 51 -79t112 -31q66 0 105.5 25t39.5 63q0 15 -5 27t-18 22t-23 16.5t-32.5 14t-33 10.5t-39 10t-36.5 9q-27 7 -38 10t-38 12t-40 17.5t-29.5 22t-24 31t-7.5 38.5q0 79 106 112q-89 35 -89 104q0 57 58 94t147 37
q79 0 136 -35t72 -94zM118 372q0 -9 3 -17t9.5 -14.5t13 -12t18.5 -10.5t20.5 -8.5t25 -7.5t25 -6.5t27 -6.5t26.5 -6l33 -9q43 8 69 29t26 52q0 15 -5.5 27t-17.5 21t-23 15.5t-31 13t-33 9.5t-37 8.5t-35 8.5q-45 -6 -79.5 -27.5t-34.5 -58.5z" />
    <glyph glyph-name="dieresis" unicode="&#xa8;" horiz-adv-x="396" 
d="M74 765q-21 0 -35 14t-14 35q0 20 14 34t35 14q20 0 34.5 -14t14.5 -34q0 -21 -14.5 -35t-34.5 -14zM310 765q-20 0 -34.5 14t-14.5 35q0 20 14.5 34t34.5 14q21 0 35 -14t14 -34q0 -21 -14 -35t-35 -14z" />
    <glyph glyph-name="copyright" unicode="&#xa9;" horiz-adv-x="814" 
d="M407 714q153 0 258.5 -103.5t105.5 -260.5t-105.5 -260.5t-258.5 -103.5q-152 0 -257.5 103.5t-105.5 260.5t105.5 260.5t257.5 103.5zM407 654q-130 0 -214.5 -84t-84.5 -220q0 -134 84.5 -218.5t214.5 -84.5q129 0 214 84.5t85 218.5q0 135 -85 219.5t-214 84.5z
M522 292l52 -15q-19 -46 -65 -76t-99 -30q-75 0 -126 51t-51 127t51 127t126 51q50 0 94.5 -27t64.5 -69l-52 -15q-15 27 -44 43t-63 16q-54 0 -88 -35t-34 -91t34 -91t88 -35q36 0 67 19t45 50z" />
    <glyph glyph-name="ordfeminine" unicode="&#xaa;" horiz-adv-x="353" 
d="M108 453l-29 -78h-57l131 333h46l131 -333h-58l-29 78h-135zM156 579l-31 -83h102l-31 83q-5 14 -9.5 32.5t-6.5 29.5l-3 11h-1l-2 -11q-3 -11 -8 -29.5t-10 -32.5zM20 309h313v-54h-313v54z" />
    <glyph glyph-name="guillemotleft" unicode="&#xab;" horiz-adv-x="752" 
d="M329 586l-236 -234l235 -234l48 46l-192 188l191 188zM612 586l-236 -234l235 -234l48 46l-192 188l191 188z" />
    <glyph glyph-name="softhyphen" unicode="&#xad;" horiz-adv-x="649" 
d="M93 390h463v-69h-463v69z" />
    <glyph glyph-name="registered" unicode="&#xae;" horiz-adv-x="814" 
d="M407 714q153 0 258.5 -103.5t105.5 -260.5t-105.5 -260.5t-258.5 -103.5q-152 0 -257.5 103.5t-105.5 260.5t105.5 260.5t257.5 103.5zM407 47q129 0 214 84.5t85 218.5q0 135 -85 219.5t-214 84.5q-130 0 -214.5 -84t-84.5 -220q0 -134 84.5 -218.5t214.5 -84.5z
M296 529h113q62 0 98 -30t36 -82q0 -76 -72 -102l88 -143h-57l-81 134h-12h-61v-134h-52v357zM348 350h65q79 0 79 66q0 65 -79 65h-65v-131z" />
    <glyph glyph-name="macron" unicode="&#xaf;" horiz-adv-x="369" 
d="M18 755h322v-64h-322v64z" />
    <glyph glyph-name="degree" unicode="&#xb0;" horiz-adv-x="293" 
d="M147 588q-46 0 -78 32t-32 77q0 46 32 77.5t78 31.5q45 0 77 -32t32 -77t-32.5 -77t-76.5 -32zM147 640q24 0 41.5 17.5t17.5 40.5q0 24 -17.5 41t-41.5 17t-41.5 -17t-17.5 -41q0 -23 17.5 -40.5t41.5 -17.5z" />
    <glyph glyph-name="plusminus" unicode="&#xb1;" 
d="M386 390h195v-69h-194v-168h-74v168h-195v69h194v192h74v-192zM118 -10v69h463v-69h-463z" />
    <glyph glyph-name="twosuperior" unicode="&#xb2;" horiz-adv-x="329" 
d="M97 518l1 -1l16 1q15 2 38.5 3.5t44.5 1.5h107v-52h-277v41l160 129q63 50 63 100q0 33 -23.5 54t-59.5 21q-40 0 -61.5 -20.5t-32.5 -58.5l-53 14q14 56 53.5 87.5t94.5 31.5q59 0 99 -37t40 -91q0 -67 -72 -126l-82 -64q-13 -10 -27 -18t-22 -12z" />
    <glyph glyph-name="threesuperior" unicode="&#xb3;" horiz-adv-x="331" 
d="M78 744l-51 14q10 51 48 81.5t94 30.5q66 0 101 -31t35 -76q0 -37 -26.5 -62t-60.5 -27v-1q38 -2 64.5 -25.5t26.5 -62.5q0 -54 -39.5 -88t-99.5 -34q-58 0 -100.5 34t-49.5 87l52 13q3 -38 29.5 -60.5t68.5 -22.5q40 0 61.5 20.5t21.5 51.5q0 29 -24 47t-62 18h-39v44
h39q36 0 59 18.5t23 46.5q0 23 -20 41.5t-60 18.5q-74 0 -91 -76z" />
    <glyph glyph-name="acute" unicode="&#xb4;" horiz-adv-x="307" 
d="M240 900l30 -58l-219 -104l-26 46z" />
    <glyph glyph-name="paragraph" unicode="&#xb6;" horiz-adv-x="648" 
d="M266 700h289v-700h-82v623h-85v-623h-78v338h-44q-105 0 -163.5 47.5t-58.5 133.5q0 85 58.5 133t163.5 48z" />
    <glyph glyph-name="periodcentered" unicode="&#xb7;" horiz-adv-x="219" 
d="M110 297q-21 0 -35.5 14.5t-14.5 34.5q0 21 14.5 35.5t35.5 14.5q20 0 34.5 -15t14.5 -35q0 -21 -14.5 -35t-34.5 -14z" />
    <glyph glyph-name="cedilla" unicode="&#xb8;" horiz-adv-x="241" 
d="M119 0l-19 -50q46 1 75 -24.5t29 -67.5q0 -44 -29.5 -69t-76.5 -25h-73l20 48h53q26 0 41 12.5t15 32.5q0 21 -15.5 34t-40.5 13h-64l34 96h51z" />
    <glyph glyph-name="onesuperior" unicode="&#xb9;" horiz-adv-x="222" 
d="M144 862h40v-391h-58v233q0 8 0.5 19.5t1.5 22.5t2 21t2 16v6h-1q-1 0 -5 -5.5t-12 -15t-16 -16.5l-47 -47l-37 34z" />
    <glyph glyph-name="ordmasculine" unicode="&#xba;" horiz-adv-x="367" 
d="M10 540q0 75 50 124.5t123 49.5q72 0 123 -49.5t51 -124.5q0 -74 -51 -123.5t-123 -49.5q-73 0 -123 49.5t-50 123.5zM65 540q0 -52 34 -86t84 -34q51 0 84.5 34t33.5 86t-33.5 86.5t-84.5 34.5q-50 0 -84 -34.5t-34 -86.5zM21 309h326v-54h-326v54z" />
    <glyph glyph-name="guillemotright" unicode="&#xbb;" horiz-adv-x="752" 
d="M140 586l236 -234l-235 -234l-48 46l192 188l-191 188zM423 586l236 -234l-235 -234l-48 46l192 188l-191 188z" />
    <glyph glyph-name="onequarter" unicode="&#xbc;" horiz-adv-x="675" 
d="M132 627h-1q-1 0 -5 -5.5t-12 -15t-16 -16.5l-47 -47l-37 34l130 123h40v-391h-58v233q0 8 0.5 19.5t1.5 22.5t2 21t2 16v6zM536 700h59l-477 -700h-59zM653 144v-50h-51v-94h-53v94h-204v40l215 257h42v-247h51zM471 143h78v85q0 13 0.5 26.5t0.5 23t0.5 17.5t1.5 12v4
h-1l-8 -11q-8 -11 -21.5 -29t-24.5 -30l-51 -59q-7 -9 -18 -18.5t-18 -15.5l-6 -6l1 -1h3q4 0 10.5 0.5t14 1t18 0.5h20.5z" />
    <glyph glyph-name="onehalf" unicode="&#xbd;" horiz-adv-x="714" 
d="M144 700h40v-391h-58v233q0 8 0.5 19.5t1.5 22.5t2 21t2 16v6h-1q-1 0 -5 -5.5t-12 -15t-16 -16.5l-47 -47l-37 34zM59 0l477 700h59l-477 -700h-59zM482 47l1 -1l15 2q16 1 39.5 2.5t44.5 1.5h107v-52h-277v41l160 129q63 50 63 100q0 33 -23.5 54t-59.5 21
q-40 0 -61.5 -20.5t-32.5 -58.5l-53 14q14 56 53.5 87.5t94.5 31.5q59 0 99 -37t40 -91q0 -67 -72 -126l-82 -64q-13 -10 -27 -18l-21 -12z" />
    <glyph glyph-name="threequarters" unicode="&#xbe;" horiz-adv-x="749" 
d="M218 512v-1q38 -2 64.5 -25.5t26.5 -62.5q0 -54 -39.5 -88t-99.5 -34q-58 0 -100.5 34t-49.5 87l52 13q3 -38 29.5 -60.5t68.5 -22.5q40 0 61.5 20.5t21.5 51.5q0 29 -24 47t-62 18h-39v44h39q36 0 59 18.5t23 46.5q0 23 -20 41.5t-60 18.5q-74 0 -91 -76l-51 14
q10 51 48 81.5t94 30.5q66 0 101 -31t35 -76q0 -37 -26.5 -62t-60.5 -27zM610 700h59l-477 -700h-60zM727 144v-50h-51v-94h-53v94h-204v40l215 257h42v-247h51zM545 143h78v85q0 13 0.5 26.5t0.5 23t0.5 17.5t1.5 12v4h-1l-8 -11q-8 -11 -21.5 -29t-24.5 -30l-51 -59
q-7 -9 -18 -18.5t-18 -15.5l-6 -6l1 -1h3q4 0 10.5 0.5t14 1t18 0.5h20.5z" />
    <glyph glyph-name="questiondown" unicode="&#xbf;" horiz-adv-x="573" 
d="M339 700v-157h-83v157h83zM339 472v-101q-119 -53 -165 -92.5t-46 -93.5q0 -50 36 -87.5t117 -37.5q142 0 179 134l69 -20q-20 -88 -86.5 -138t-163.5 -50q-118 0 -177 56.5t-59 139.5q0 44 17.5 79t52 62t65.5 44t78 37v68h83z" />
    <glyph glyph-name="Agrave" unicode="&#xc0;" horiz-adv-x="719" 
d="M441 784l-26 -46l-219 104l31 58zM613 0l-78 183h-351l-78 -183h-88l304 700h75l304 -700h-88zM215 256h289l-111 260q-6 15 -14.5 37t-13.5 35l-5 13h-1l-5 -13q-5 -13 -13.5 -35t-14.5 -37z" />
    <glyph glyph-name="Aacute" unicode="&#xc1;" horiz-adv-x="719" 
d="M507 842l-219 -104l-26 46l215 116zM613 0l-78 183h-351l-78 -183h-88l304 700h75l304 -700h-88zM215 256h289l-111 260q-6 15 -14.5 37t-13.5 35l-5 13h-1l-5 -13q-5 -13 -13.5 -35t-14.5 -37z" />
    <glyph glyph-name="Acircumflex" unicode="&#xc2;" horiz-adv-x="719" 
d="M358 847l-125 -105l-42 43l167 141l166 -141l-41 -43zM613 0l-78 183h-351l-78 -183h-88l304 700h75l304 -700h-88zM215 256h289l-111 260q-6 15 -14.5 37t-13.5 35l-5 13h-1l-5 -13q-5 -13 -13.5 -35t-14.5 -37z" />
    <glyph glyph-name="Atilde" unicode="&#xc3;" horiz-adv-x="719" 
d="M472 861h66q1 -45 -30 -74.5t-80 -29.5q-31 0 -72.5 29t-61.5 29q-22 0 -36 -13.5t-14 -33.5h-66q0 45 31 74.5t79 29.5q35 0 76 -29t59 -29q21 0 35 13.5t14 33.5zM613 0l-78 183h-351l-78 -183h-88l304 700h75l304 -700h-88zM215 256h289l-111 260q-6 15 -14.5 37
t-13.5 35l-5 13h-1l-5 -13q-5 -13 -13.5 -35t-14.5 -37z" />
    <glyph glyph-name="Adieresis" unicode="&#xc4;" horiz-adv-x="719" 
d="M239 765q-21 0 -35 14t-14 35q0 20 14 34t35 14q20 0 34.5 -14t14.5 -34q0 -21 -14.5 -35t-34.5 -14zM475 765q-20 0 -34.5 14t-14.5 35q0 20 14.5 34t34.5 14q21 0 35 -14t14 -34q0 -21 -14 -35t-35 -14zM613 0l-78 183h-351l-78 -183h-88l304 700h75l304 -700h-88z
M215 256h289l-111 260q-6 15 -14.5 37t-13.5 35l-5 13h-1l-5 -13q-5 -13 -13.5 -35t-14.5 -37z" />
    <glyph glyph-name="Aring" unicode="&#xc5;" horiz-adv-x="719" 
d="M613 0l-78 183h-351l-78 -183h-88l303 697q-31 12 -50.5 40t-19.5 62q0 45 31.5 77t77.5 32q45 0 77.5 -32t32.5 -77q0 -35 -20 -63t-52 -39l303 -697h-88zM301 799q0 -23 17.5 -40.5t41.5 -17.5t41.5 17.5t17.5 40.5q0 25 -17.5 42t-41.5 17t-41.5 -17t-17.5 -42z
M215 256h289l-111 260q-6 15 -14.5 37t-13.5 35l-5 13h-1l-5 -13q-5 -13 -13.5 -35t-14.5 -37z" />
    <glyph glyph-name="AE" unicode="&#xc6;" horiz-adv-x="990" 
d="M537 77h391v-77h-472v183h-269l-80 -183h-89l312 700h592v-77h-385v-216h310v-73h-310v-257zM456 256v367h-80l-9 -21q-9 -22 -23.5 -57.5t-23.5 -56.5l-101 -232h237z" />
    <glyph glyph-name="Ccedilla" unicode="&#xc7;" horiz-adv-x="761" 
d="M654 212l81 -22q-42 -91 -126 -145.5t-188 -58.5l-14 -36q45 1 74.5 -24.5t29.5 -67.5q0 -44 -30 -69t-77 -25h-72l19 48h53q26 0 41 12.5t15 32.5q0 21 -15.5 34t-40.5 13h-63l30 84q-140 13 -233.5 114t-93.5 248q0 157 105.5 260.5t257.5 103.5q102 0 186 -49.5
t132 -134.5l-83 -21q-36 58 -99 91.5t-136 33.5q-121 0 -200 -79t-79 -205q0 -125 80 -204t199 -79q80 0 146 39.5t101 105.5z" />
    <glyph glyph-name="Egrave" unicode="&#xc8;" horiz-adv-x="629" 
d="M413 784l-26 -46l-219 104l31 58zM175 77h391v-77h-473v700h467v-77h-385v-216h309v-73h-309v-257z" />
    <glyph glyph-name="Eacute" unicode="&#xc9;" horiz-adv-x="629" 
d="M479 842l-219 -104l-26 46l215 116zM175 77h391v-77h-473v700h467v-77h-385v-216h309v-73h-309v-257z" />
    <glyph glyph-name="Ecircumflex" unicode="&#xca;" horiz-adv-x="629" 
d="M330 847l-125 -105l-42 43l167 141l166 -141l-41 -43zM175 77h391v-77h-473v700h467v-77h-385v-216h309v-73h-309v-257z" />
    <glyph glyph-name="Edieresis" unicode="&#xcb;" horiz-adv-x="629" 
d="M211 765q-21 0 -35 14t-14 35q0 20 14 34t35 14q20 0 34.5 -14t14.5 -34q0 -21 -14.5 -35t-34.5 -14zM447 765q-20 0 -34.5 14t-14.5 35q0 20 14.5 34t34.5 14q21 0 35 -14t14 -34q0 -21 -14 -35t-35 -14zM175 77h391v-77h-473v700h467v-77h-385v-216h309v-73h-309v-257z
" />
    <glyph glyph-name="Igrave" unicode="&#xcc;" horiz-adv-x="268" 
d="M189 738l-219 104l31 58l214 -116zM175 0h-82v700h82v-700z" />
    <glyph glyph-name="Iacute" unicode="&#xcd;" horiz-adv-x="268" 
d="M251 900l30 -58l-219 -104l-26 46zM175 0h-82v700h82v-700z" />
    <glyph glyph-name="Icircumflex" unicode="&#xce;" horiz-adv-x="268" 
d="M-35 785l167 141l166 -141l-41 -43l-125 105l-125 -105zM175 0h-82v700h82v-700z" />
    <glyph glyph-name="Idieresis" unicode="&#xcf;" horiz-adv-x="268" 
d="M13 765q-21 0 -35 14t-14 35q0 20 14 34t35 14q20 0 34.5 -14t14.5 -34q0 -21 -14.5 -35t-34.5 -14zM249 765q-20 0 -34.5 14t-14.5 35q0 20 14.5 34t34.5 14q21 0 35 -14t14 -34q0 -21 -14 -35t-35 -14zM175 0h-82v700h82v-700z" />
    <glyph glyph-name="Eth" unicode="&#xd0;" horiz-adv-x="799" 
d="M98 700h295q153 0 257.5 -99.5t104.5 -254.5q0 -152 -103 -249t-253 -97h-301v319h-54v74h54v307zM180 77h219q114 0 193 74t79 195q0 124 -80.5 200.5t-197.5 76.5h-213v-230h178v-74h-178v-242z" />
    <glyph glyph-name="Ntilde" unicode="&#xd1;" horiz-adv-x="760" 
d="M494 861h66q1 -45 -30 -74.5t-80 -29.5q-31 0 -72.5 29t-61.5 29q-22 0 -36 -13.5t-14 -33.5h-66q0 45 31 74.5t79 29.5q35 0 76 -29t59 -29q21 0 35 13.5t14 33.5zM585 700h82v-700h-77l-311 419q-25 35 -52 73t-40 56l-13 18h-1l1 -24q0 -25 0.5 -76t0.5 -99v-367h-82
v700h77l311 -418q23 -30 49.5 -67t41.5 -57l14 -20h1l-1 26q0 26 -0.5 76t-0.5 92v368z" />
    <glyph glyph-name="Ograve" unicode="&#xd2;" horiz-adv-x="814" 
d="M467 738l-219 104l31 58l214 -116zM44 350q0 157 105.5 260.5t257.5 103.5q153 0 258.5 -103.5t105.5 -260.5t-105.5 -260.5t-258.5 -103.5q-152 0 -257.5 103.5t-105.5 260.5zM128 350q0 -125 79.5 -204.5t199.5 -79.5t199.5 79.5t79.5 204.5q0 126 -79.5 205t-199.5 79
q-121 0 -200 -79t-79 -205z" />
    <glyph glyph-name="Oacute" unicode="&#xd3;" horiz-adv-x="814" 
d="M529 900l30 -58l-219 -104l-26 46zM44 350q0 157 105.5 260.5t257.5 103.5q153 0 258.5 -103.5t105.5 -260.5t-105.5 -260.5t-258.5 -103.5q-152 0 -257.5 103.5t-105.5 260.5zM128 350q0 -125 79.5 -204.5t199.5 -79.5t199.5 79.5t79.5 204.5q0 126 -79.5 205t-199.5 79
q-121 0 -200 -79t-79 -205z" />
    <glyph glyph-name="Ocircumflex" unicode="&#xd4;" horiz-adv-x="814" 
d="M243 785l167 141l166 -141l-41 -43l-125 105l-125 -105zM44 350q0 157 105.5 260.5t257.5 103.5q153 0 258.5 -103.5t105.5 -260.5t-105.5 -260.5t-258.5 -103.5q-152 0 -257.5 103.5t-105.5 260.5zM128 350q0 -125 79.5 -204.5t199.5 -79.5t199.5 79.5t79.5 204.5
q0 126 -79.5 205t-199.5 79q-121 0 -200 -79t-79 -205z" />
    <glyph glyph-name="Otilde" unicode="&#xd5;" horiz-adv-x="814" 
d="M524 861h66q1 -45 -30 -74.5t-80 -29.5q-31 0 -72.5 29t-61.5 29q-22 0 -36 -13.5t-14 -33.5h-66q0 45 31 74.5t79 29.5q35 0 76 -29t59 -29q21 0 35 13.5t14 33.5zM44 350q0 157 105.5 260.5t257.5 103.5q153 0 258.5 -103.5t105.5 -260.5t-105.5 -260.5t-258.5 -103.5
q-152 0 -257.5 103.5t-105.5 260.5zM128 350q0 -125 79.5 -204.5t199.5 -79.5t199.5 79.5t79.5 204.5q0 126 -79.5 205t-199.5 79q-121 0 -200 -79t-79 -205z" />
    <glyph glyph-name="Odieresis" unicode="&#xd6;" horiz-adv-x="814" 
d="M291 765q-21 0 -35 14t-14 35q0 20 14 34t35 14q20 0 34.5 -14t14.5 -34q0 -21 -14.5 -35t-34.5 -14zM527 765q-20 0 -34.5 14t-14.5 35q0 20 14.5 34t34.5 14q21 0 35 -14t14 -34q0 -21 -14 -35t-35 -14zM44 350q0 157 105.5 260.5t257.5 103.5q153 0 258.5 -103.5
t105.5 -260.5t-105.5 -260.5t-258.5 -103.5q-152 0 -257.5 103.5t-105.5 260.5zM128 350q0 -125 79.5 -204.5t199.5 -79.5t199.5 79.5t79.5 204.5q0 126 -79.5 205t-199.5 79q-121 0 -200 -79t-79 -205z" />
    <glyph glyph-name="multiply" unicode="&#xd7;" 
d="M494 556l54 -54l-145 -144l145 -145l-55 -54l-144 145l-144 -144l-54 54l144 144l-144 144l54 53l144 -143z" />
    <glyph glyph-name="Oslash" unicode="&#xd8;" horiz-adv-x="814" 
d="M697 668l-39 -51q113 -105 113 -267q0 -157 -105.5 -260.5t-258.5 -103.5q-105 0 -190 51l-37 -49l-58 44l37 49q-115 105 -115 269q0 157 105.5 260.5t257.5 103.5q107 0 194 -53l38 50zM208 145l344 452q-65 37 -145 37q-121 0 -200 -79t-79 -205q0 -125 80 -205z
M609 552l-343 -451q62 -35 141 -35q120 0 199.5 79.5t79.5 204.5q0 123 -77 202z" />
    <glyph glyph-name="Ugrave" unicode="&#xd9;" horiz-adv-x="723" 
d="M419 738l-219 104l31 58l214 -116zM567 700h82v-410q0 -148 -75 -226.5t-213 -78.5t-212.5 78.5t-74.5 226.5v410h82v-411q0 -227 205 -227q206 0 206 227v411z" />
    <glyph glyph-name="Uacute" unicode="&#xda;" horiz-adv-x="723" 
d="M481 900l30 -58l-219 -104l-26 46zM567 700h82v-410q0 -148 -75 -226.5t-213 -78.5t-212.5 78.5t-74.5 226.5v410h82v-411q0 -227 205 -227q206 0 206 227v411z" />
    <glyph glyph-name="Ucircumflex" unicode="&#xdb;" horiz-adv-x="723" 
d="M195 785l167 141l166 -141l-41 -43l-125 105l-125 -105zM567 700h82v-410q0 -148 -75 -226.5t-213 -78.5t-212.5 78.5t-74.5 226.5v410h82v-411q0 -227 205 -227q206 0 206 227v411z" />
    <glyph glyph-name="Udieresis" unicode="&#xdc;" horiz-adv-x="723" 
d="M243 765q-21 0 -35 14t-14 35q0 20 14 34t35 14q20 0 34.5 -14t14.5 -34q0 -21 -14.5 -35t-34.5 -14zM479 765q-20 0 -34.5 14t-14.5 35q0 20 14.5 34t34.5 14q21 0 35 -14t14 -34q0 -21 -14 -35t-35 -14zM567 700h82v-410q0 -148 -75 -226.5t-213 -78.5t-212.5 78.5
t-74.5 226.5v410h82v-411q0 -227 205 -227q206 0 206 227v411z" />
    <glyph glyph-name="Yacute" unicode="&#xdd;" horiz-adv-x="656" 
d="M445 900l30 -58l-219 -104l-26 46zM546 700h94l-272 -356v-344h-81v344l-271 356h93l176 -229q6 -8 18 -23.5t19 -23.5l6 -8h1q1 0 42 55z" />
    <glyph glyph-name="Thorn" unicode="&#xde;" horiz-adv-x="607" 
d="M175 574h151q105 0 171 -62t66 -160t-66 -160t-171 -62h-151v-130h-82v700h82v-126zM175 207h153q68 0 109.5 40t41.5 105t-41.5 105.5t-109.5 39.5h-153v-290z" />
    <glyph glyph-name="germandbls" unicode="&#xdf;" horiz-adv-x="770" 
d="M93 700h565l-119 -215q-7 -14 -19 -35l-20 -35l-8 -14l1 -1h7q100 1 163 -56.5t63 -146.5q0 -91 -64.5 -151t-167.5 -60q-78 0 -142.5 37t-96.5 100l78 23q52 -89 158 -89q69 0 111 40t42 101q0 57 -40.5 98t-113.5 41h-75v63l80 149q6 12 17 31t18 32l7 12l-1 1h-4
q-4 0 -10.5 -0.5t-15 -1t-20.5 -0.5h-23h-288v-623h-82v700z" />
    <glyph glyph-name="agrave" unicode="&#xe0;" horiz-adv-x="719" 
d="M441 784l-26 -46l-219 104l31 58zM613 0l-78 183h-351l-78 -183h-88l304 700h75l304 -700h-88zM215 256h289l-111 260q-6 15 -14.5 37t-13.5 35l-5 13h-1l-5 -13q-5 -13 -13.5 -35t-14.5 -37z" />
    <glyph glyph-name="aacute" unicode="&#xe1;" horiz-adv-x="719" 
d="M507 842l-219 -104l-26 46l215 116zM613 0l-78 183h-351l-78 -183h-88l304 700h75l304 -700h-88zM215 256h289l-111 260q-6 15 -14.5 37t-13.5 35l-5 13h-1l-5 -13q-5 -13 -13.5 -35t-14.5 -37z" />
    <glyph glyph-name="acircumflex" unicode="&#xe2;" horiz-adv-x="719" 
d="M358 847l-125 -105l-42 43l167 141l166 -141l-41 -43zM613 0l-78 183h-351l-78 -183h-88l304 700h75l304 -700h-88zM215 256h289l-111 260q-6 15 -14.5 37t-13.5 35l-5 13h-1l-5 -13q-5 -13 -13.5 -35t-14.5 -37z" />
    <glyph glyph-name="atilde" unicode="&#xe3;" horiz-adv-x="719" 
d="M472 861h66q1 -45 -30 -74.5t-80 -29.5q-31 0 -72.5 29t-61.5 29q-22 0 -36 -13.5t-14 -33.5h-66q0 45 31 74.5t79 29.5q35 0 76 -29t59 -29q21 0 35 13.5t14 33.5zM613 0l-78 183h-351l-78 -183h-88l304 700h75l304 -700h-88zM215 256h289l-111 260q-6 15 -14.5 37
t-13.5 35l-5 13h-1l-5 -13q-5 -13 -13.5 -35t-14.5 -37z" />
    <glyph glyph-name="adieresis" unicode="&#xe4;" horiz-adv-x="719" 
d="M239 765q-21 0 -35 14t-14 35q0 20 14 34t35 14q20 0 34.5 -14t14.5 -34q0 -21 -14.5 -35t-34.5 -14zM475 765q-20 0 -34.5 14t-14.5 35q0 20 14.5 34t34.5 14q21 0 35 -14t14 -34q0 -21 -14 -35t-35 -14zM613 0l-78 183h-351l-78 -183h-88l304 700h75l304 -700h-88z
M215 256h289l-111 260q-6 15 -14.5 37t-13.5 35l-5 13h-1l-5 -13q-5 -13 -13.5 -35t-14.5 -37z" />
    <glyph glyph-name="aring" unicode="&#xe5;" horiz-adv-x="719" 
d="M613 0l-78 183h-351l-78 -183h-88l303 697q-31 12 -50.5 40t-19.5 62q0 45 31.5 77t77.5 32q45 0 77.5 -32t32.5 -77q0 -35 -20 -63t-52 -39l303 -697h-88zM301 799q0 -23 17.5 -40.5t41.5 -17.5t41.5 17.5t17.5 40.5q0 25 -17.5 42t-41.5 17t-41.5 -17t-17.5 -42z
M215 256h289l-111 260q-6 15 -14.5 37t-13.5 35l-5 13h-1l-5 -13q-5 -13 -13.5 -35t-14.5 -37z" />
    <glyph glyph-name="ae" unicode="&#xe6;" horiz-adv-x="990" 
d="M537 77h391v-77h-472v183h-269l-80 -183h-89l312 700h592v-77h-385v-216h310v-73h-310v-257zM456 256v367h-80l-9 -21q-9 -22 -23.5 -57.5t-23.5 -56.5l-101 -232h237z" />
    <glyph glyph-name="ccedilla" unicode="&#xe7;" horiz-adv-x="761" 
d="M654 212l81 -22q-42 -91 -126 -145.5t-188 -58.5l-14 -36q45 1 74.5 -24.5t29.5 -67.5q0 -44 -30 -69t-77 -25h-72l19 48h53q26 0 41 12.5t15 32.5q0 21 -15.5 34t-40.5 13h-63l30 84q-140 13 -233.5 114t-93.5 248q0 157 105.5 260.5t257.5 103.5q102 0 186 -49.5
t132 -134.5l-83 -21q-36 58 -99 91.5t-136 33.5q-121 0 -200 -79t-79 -205q0 -125 80 -204t199 -79q80 0 146 39.5t101 105.5z" />
    <glyph glyph-name="egrave" unicode="&#xe8;" horiz-adv-x="629" 
d="M410 784l-26 -46l-219 104l31 58zM175 77h391v-77h-473v700h467v-77h-385v-216h309v-73h-309v-257z" />
    <glyph glyph-name="eacute" unicode="&#xe9;" horiz-adv-x="629" 
d="M476 842l-219 -104l-26 46l215 116zM175 77h391v-77h-473v700h467v-77h-385v-216h309v-73h-309v-257z" />
    <glyph glyph-name="ecircumflex" unicode="&#xea;" horiz-adv-x="629" 
d="M327 847l-125 -105l-42 43l167 141l166 -141l-41 -43zM175 77h391v-77h-473v700h467v-77h-385v-216h309v-73h-309v-257z" />
    <glyph glyph-name="edieresis" unicode="&#xeb;" horiz-adv-x="629" 
d="M208 765q-21 0 -35 14t-14 35q0 20 14 34t35 14q20 0 34.5 -14t14.5 -34q0 -21 -14.5 -35t-34.5 -14zM444 765q-20 0 -34.5 14t-14.5 35q0 20 14.5 34t34.5 14q21 0 35 -14t14 -34q0 -21 -14 -35t-35 -14zM175 77h391v-77h-473v700h467v-77h-385v-216h309v-73h-309v-257z
" />
    <glyph glyph-name="igrave" unicode="&#xec;" horiz-adv-x="268" 
d="M189 738l-219 104l31 58l214 -116zM175 0h-82v700h82v-700z" />
    <glyph glyph-name="iacute" unicode="&#xed;" horiz-adv-x="268" 
d="M251 900l30 -58l-219 -104l-26 46zM175 0h-82v700h82v-700z" />
    <glyph glyph-name="icircumflex" unicode="&#xee;" horiz-adv-x="268" 
d="M-35 785l167 141l166 -141l-41 -43l-125 105l-125 -105zM175 0h-82v700h82v-700z" />
    <glyph glyph-name="idieresis" unicode="&#xef;" horiz-adv-x="268" 
d="M13 765q-21 0 -35 14t-14 35q0 20 14 34t35 14q20 0 34.5 -14t14.5 -34q0 -21 -14.5 -35t-34.5 -14zM249 765q-20 0 -34.5 14t-14.5 35q0 20 14.5 34t34.5 14q21 0 35 -14t14 -34q0 -21 -14 -35t-35 -14zM175 0h-82v700h82v-700z" />
    <glyph glyph-name="eth" unicode="&#xf0;" horiz-adv-x="799" 
d="M98 700h295q153 0 257.5 -99.5t104.5 -254.5q0 -152 -103 -249t-253 -97h-301v319h-54v74h54v307zM180 77h219q114 0 193 74t79 195q0 124 -80.5 200.5t-197.5 76.5h-213v-230h178v-74h-178v-242z" />
    <glyph glyph-name="ntilde" unicode="&#xf1;" horiz-adv-x="760" 
d="M494 861h66q1 -45 -30 -74.5t-80 -29.5q-31 0 -72.5 29t-61.5 29q-22 0 -36 -13.5t-14 -33.5h-66q0 45 31 74.5t79 29.5q35 0 76 -29t59 -29q21 0 35 13.5t14 33.5zM585 700h82v-700h-77l-311 419q-25 35 -52 73t-40 56l-13 18h-1l1 -24q0 -25 0.5 -76t0.5 -99v-367h-82
v700h77l311 -418q23 -30 49.5 -67t41.5 -57l14 -20h1l-1 26q0 26 -0.5 76t-0.5 92v368z" />
    <glyph glyph-name="ograve" unicode="&#xf2;" horiz-adv-x="814" 
d="M465 738l-219 104l31 58l214 -116zM44 350q0 157 105.5 260.5t257.5 103.5q153 0 258.5 -103.5t105.5 -260.5t-105.5 -260.5t-258.5 -103.5q-152 0 -257.5 103.5t-105.5 260.5zM128 350q0 -125 79.5 -204.5t199.5 -79.5t199.5 79.5t79.5 204.5q0 126 -79.5 205t-199.5 79
q-121 0 -200 -79t-79 -205z" />
    <glyph glyph-name="oacute" unicode="&#xf3;" horiz-adv-x="814" 
d="M527 900l30 -58l-219 -104l-26 46zM44 350q0 157 105.5 260.5t257.5 103.5q153 0 258.5 -103.5t105.5 -260.5t-105.5 -260.5t-258.5 -103.5q-152 0 -257.5 103.5t-105.5 260.5zM128 350q0 -125 79.5 -204.5t199.5 -79.5t199.5 79.5t79.5 204.5q0 126 -79.5 205t-199.5 79
q-121 0 -200 -79t-79 -205z" />
    <glyph glyph-name="ocircumflex" unicode="&#xf4;" horiz-adv-x="814" 
d="M241 785l167 141l166 -141l-41 -43l-125 105l-125 -105zM44 350q0 157 105.5 260.5t257.5 103.5q153 0 258.5 -103.5t105.5 -260.5t-105.5 -260.5t-258.5 -103.5q-152 0 -257.5 103.5t-105.5 260.5zM128 350q0 -125 79.5 -204.5t199.5 -79.5t199.5 79.5t79.5 204.5
q0 126 -79.5 205t-199.5 79q-121 0 -200 -79t-79 -205z" />
    <glyph glyph-name="otilde" unicode="&#xf5;" horiz-adv-x="814" 
d="M522 861h66q1 -45 -30 -74.5t-80 -29.5q-31 0 -72.5 29t-61.5 29q-22 0 -36 -13.5t-14 -33.5h-66q0 45 31 74.5t79 29.5q35 0 76 -29t59 -29q21 0 35 13.5t14 33.5zM44 350q0 157 105.5 260.5t257.5 103.5q153 0 258.5 -103.5t105.5 -260.5t-105.5 -260.5t-258.5 -103.5
q-152 0 -257.5 103.5t-105.5 260.5zM128 350q0 -125 79.5 -204.5t199.5 -79.5t199.5 79.5t79.5 204.5q0 126 -79.5 205t-199.5 79q-121 0 -200 -79t-79 -205z" />
    <glyph glyph-name="odieresis" unicode="&#xf6;" horiz-adv-x="814" 
d="M289 765q-21 0 -35 14t-14 35q0 20 14 34t35 14q20 0 34.5 -14t14.5 -34q0 -21 -14.5 -35t-34.5 -14zM525 765q-20 0 -34.5 14t-14.5 35q0 20 14.5 34t34.5 14q21 0 35 -14t14 -34q0 -21 -14 -35t-35 -14zM44 350q0 157 105.5 260.5t257.5 103.5q153 0 258.5 -103.5
t105.5 -260.5t-105.5 -260.5t-258.5 -103.5q-152 0 -257.5 103.5t-105.5 260.5zM128 350q0 -125 79.5 -204.5t199.5 -79.5t199.5 79.5t79.5 204.5q0 126 -79.5 205t-199.5 79q-121 0 -200 -79t-79 -205z" />
    <glyph glyph-name="divide" unicode="&#xf7;" 
d="M343 529q-21 0 -35.5 14.5t-14.5 34.5q0 21 14.5 35.5t35.5 14.5q20 0 34.5 -15t14.5 -35q0 -21 -14.5 -35t-34.5 -14zM114 390h463v-69h-463v69zM343 86q-21 0 -35.5 14.5t-14.5 34.5q0 21 14.5 35.5t35.5 14.5q20 0 34.5 -15t14.5 -35q0 -21 -14.5 -35t-34.5 -14z" />
    <glyph glyph-name="oslash" unicode="&#xf8;" horiz-adv-x="814" 
d="M697 668l-39 -51q113 -105 113 -267q0 -157 -105.5 -260.5t-258.5 -103.5q-105 0 -190 51l-37 -49l-58 44l37 49q-115 105 -115 269q0 157 105.5 260.5t257.5 103.5q107 0 194 -53l38 50zM208 145l344 452q-65 37 -145 37q-121 0 -200 -79t-79 -205q0 -125 80 -205z
M609 552l-343 -451q62 -35 141 -35q120 0 199.5 79.5t79.5 204.5q0 123 -77 202z" />
    <glyph glyph-name="ugrave" unicode="&#xf9;" horiz-adv-x="723" 
d="M419 738l-219 104l31 58l214 -116zM567 700h82v-410q0 -148 -75 -226.5t-213 -78.5t-212.5 78.5t-74.5 226.5v410h82v-411q0 -227 205 -227q206 0 206 227v411z" />
    <glyph glyph-name="uacute" unicode="&#xfa;" horiz-adv-x="723" 
d="M481 900l30 -58l-219 -104l-26 46zM567 700h82v-410q0 -148 -75 -226.5t-213 -78.5t-212.5 78.5t-74.5 226.5v410h82v-411q0 -227 205 -227q206 0 206 227v411z" />
    <glyph glyph-name="ucircumflex" unicode="&#xfb;" horiz-adv-x="723" 
d="M195 785l167 141l166 -141l-41 -43l-125 105l-125 -105zM567 700h82v-410q0 -148 -75 -226.5t-213 -78.5t-212.5 78.5t-74.5 226.5v410h82v-411q0 -227 205 -227q206 0 206 227v411z" />
    <glyph glyph-name="udieresis" unicode="&#xfc;" horiz-adv-x="723" 
d="M243 765q-21 0 -35 14t-14 35q0 20 14 34t35 14q20 0 34.5 -14t14.5 -34q0 -21 -14.5 -35t-34.5 -14zM479 765q-20 0 -34.5 14t-14.5 35q0 20 14.5 34t34.5 14q21 0 35 -14t14 -34q0 -21 -14 -35t-35 -14zM567 700h82v-410q0 -148 -75 -226.5t-213 -78.5t-212.5 78.5
t-74.5 226.5v410h82v-411q0 -227 205 -227q206 0 206 227v411z" />
    <glyph glyph-name="yacute" unicode="&#xfd;" horiz-adv-x="656" 
d="M445 900l30 -58l-219 -104l-26 46zM546 700h94l-272 -356v-344h-81v344l-271 356h93l176 -229q6 -8 18 -23.5t19 -23.5l6 -8h1q1 0 42 55z" />
    <glyph glyph-name="thorn" unicode="&#xfe;" horiz-adv-x="607" 
d="M175 574h151q105 0 171 -62t66 -160t-66 -160t-171 -62h-151v-130h-82v700h82v-126zM175 207h153q68 0 109.5 40t41.5 105t-41.5 105.5t-109.5 39.5h-153v-290z" />
    <glyph glyph-name="ydieresis" unicode="&#xff;" horiz-adv-x="656" 
d="M207 765q-21 0 -35 14t-14 35q0 20 14 34t35 14q20 0 34.5 -14t14.5 -34q0 -21 -14.5 -35t-34.5 -14zM443 765q-20 0 -34.5 14t-14.5 35q0 20 14.5 34t34.5 14q21 0 35 -14t14 -34q0 -21 -14 -35t-35 -14zM546 700h94l-272 -356v-344h-81v344l-271 356h93l176 -229
q6 -8 18 -23.5t19 -23.5l6 -8h1q1 0 42 55z" />
    <glyph glyph-name="Amacron" unicode="&#x100;" horiz-adv-x="719" 
d="M526 843v-64h-323v64h323zM613 0l-78 183h-351l-78 -183h-88l304 700h75l304 -700h-88zM215 256h289l-111 260q-6 15 -14.5 37t-13.5 35l-5 13h-1l-5 -13q-5 -13 -13.5 -35t-14.5 -37z" />
    <glyph glyph-name="amacron" unicode="&#x101;" horiz-adv-x="719" 
d="M526 843v-64h-323v64h323zM613 0l-78 183h-351l-78 -183h-88l304 700h75l304 -700h-88zM215 256h289l-111 260q-6 15 -14.5 37t-13.5 35l-5 13h-1l-5 -13q-5 -13 -13.5 -35t-14.5 -37z" />
    <glyph glyph-name="Abreve" unicode="&#x102;" horiz-adv-x="719" 
d="M451 867h60q-11 -53 -52.5 -87.5t-96.5 -34.5q-56 0 -97 34t-52 88h60q7 -29 31.5 -49.5t57.5 -20.5q32 0 57 20.5t32 49.5zM613 0l-78 183h-351l-78 -183h-88l304 700h75l304 -700h-88zM215 256h289l-111 260q-6 15 -14.5 37t-13.5 35l-5 13h-1l-5 -13q-5 -13 -13.5 -35
t-14.5 -37z" />
    <glyph glyph-name="abreve" unicode="&#x103;" horiz-adv-x="719" 
d="M451 867h60q-11 -53 -52.5 -87.5t-96.5 -34.5q-56 0 -97 34t-52 88h60q7 -29 31.5 -49.5t57.5 -20.5q32 0 57 20.5t32 49.5zM613 0l-78 183h-351l-78 -183h-88l304 700h75l304 -700h-88zM215 256h289l-111 260q-6 15 -14.5 37t-13.5 35l-5 13h-1l-5 -13q-5 -13 -13.5 -35
t-14.5 -37z" />
    <glyph glyph-name="Aogonek" unicode="&#x104;" horiz-adv-x="719" 
d="M715 -118l47 -26q-46 -97 -149 -97q-65 0 -106.5 37.5t-41.5 98.5q0 60 40.5 99t91.5 44l-62 145h-351l-78 -183h-88l304 700h75l304 -700h-39q-55 0 -96 -25.5t-41 -79.5q0 -35 23.5 -59t63.5 -24q72 0 103 70zM215 256h289l-111 260q-6 15 -14.5 37t-13.5 35l-5 13h-1
l-5 -13q-5 -13 -13.5 -35t-14.5 -37z" />
    <glyph glyph-name="aogonek" unicode="&#x105;" horiz-adv-x="719" 
d="M715 -118l47 -26q-46 -97 -149 -97q-65 0 -106.5 37.5t-41.5 98.5q0 60 40.5 99t91.5 44l-62 145h-351l-78 -183h-88l304 700h75l304 -700h-39q-55 0 -96 -25.5t-41 -79.5q0 -35 23.5 -59t63.5 -24q72 0 103 70zM215 256h289l-111 260q-6 15 -14.5 37t-13.5 35l-5 13h-1
l-5 -13q-5 -13 -13.5 -35t-14.5 -37z" />
    <glyph glyph-name="Cacute" unicode="&#x106;" horiz-adv-x="761" 
d="M519 900l30 -58l-219 -104l-26 46zM725 530l-83 -21q-36 58 -99 91.5t-136 33.5q-121 0 -200 -79t-79 -205q0 -125 80 -204t199 -79q80 0 146 39.5t101 105.5l81 -22q-44 -94 -131.5 -149t-196.5 -55q-152 0 -257.5 103.5t-105.5 260.5t105.5 260.5t257.5 103.5
q102 0 186 -49.5t132 -134.5z" />
    <glyph glyph-name="cacute" unicode="&#x107;" horiz-adv-x="761" 
d="M519 900l30 -58l-219 -104l-26 46zM725 530l-83 -21q-36 58 -99 91.5t-136 33.5q-121 0 -200 -79t-79 -205q0 -125 80 -204t199 -79q80 0 146 39.5t101 105.5l81 -22q-44 -94 -131.5 -149t-196.5 -55q-152 0 -257.5 103.5t-105.5 260.5t105.5 260.5t257.5 103.5
q102 0 186 -49.5t132 -134.5z" />
    <glyph glyph-name="Cdotaccent" unicode="&#x10a;" horiz-adv-x="761" 
d="M402 765q-20 0 -34.5 14t-14.5 34t14.5 34.5t34.5 14.5t34 -14.5t14 -34.5t-14 -34t-34 -14zM725 530l-83 -21q-36 58 -99 91.5t-136 33.5q-121 0 -200 -79t-79 -205q0 -125 80 -204t199 -79q80 0 146 39.5t101 105.5l81 -22q-44 -94 -131.5 -149t-196.5 -55
q-152 0 -257.5 103.5t-105.5 260.5t105.5 260.5t257.5 103.5q102 0 186 -49.5t132 -134.5z" />
    <glyph glyph-name="cdotaccent" unicode="&#x10b;" horiz-adv-x="761" 
d="M402 765q-20 0 -34.5 14t-14.5 34t14.5 34.5t34.5 14.5t34 -14.5t14 -34.5t-14 -34t-34 -14zM725 530l-83 -21q-36 58 -99 91.5t-136 33.5q-121 0 -200 -79t-79 -205q0 -125 80 -204t199 -79q80 0 146 39.5t101 105.5l81 -22q-44 -94 -131.5 -149t-196.5 -55
q-152 0 -257.5 103.5t-105.5 260.5t105.5 260.5t257.5 103.5q102 0 186 -49.5t132 -134.5z" />
    <glyph glyph-name="Ccaron" unicode="&#x10c;" horiz-adv-x="761" 
d="M235 869l167 -141l166 141l-41 43l-125 -105l-125 105zM725 530l-83 -21q-36 58 -99 91.5t-136 33.5q-121 0 -200 -79t-79 -205q0 -125 80 -204t199 -79q80 0 146 39.5t101 105.5l81 -22q-44 -94 -131.5 -149t-196.5 -55q-152 0 -257.5 103.5t-105.5 260.5t105.5 260.5
t257.5 103.5q102 0 186 -49.5t132 -134.5z" />
    <glyph glyph-name="ccaron" unicode="&#x10d;" horiz-adv-x="761" 
d="M235 869l167 -141l166 141l-41 43l-125 -105l-125 105zM725 530l-83 -21q-36 58 -99 91.5t-136 33.5q-121 0 -200 -79t-79 -205q0 -125 80 -204t199 -79q80 0 146 39.5t101 105.5l81 -22q-44 -94 -131.5 -149t-196.5 -55q-152 0 -257.5 103.5t-105.5 260.5t105.5 260.5
t257.5 103.5q102 0 186 -49.5t132 -134.5z" />
    <glyph glyph-name="Dcaron" unicode="&#x10e;" horiz-adv-x="794" 
d="M215 869l167 -141l166 141l-41 43l-125 -105l-125 105zM93 700h295q153 0 257.5 -99.5t104.5 -254.5q0 -152 -103 -249t-253 -97h-301v700zM175 77h219q114 0 193 74t79 195q0 124 -80.5 200.5t-197.5 76.5h-213v-546z" />
    <glyph glyph-name="dcaron" unicode="&#x10f;" horiz-adv-x="794" 
d="M215 869l167 -141l166 141l-41 43l-125 -105l-125 105zM93 700h295q153 0 257.5 -99.5t104.5 -254.5q0 -152 -103 -249t-253 -97h-301v700zM175 77h219q114 0 193 74t79 195q0 124 -80.5 200.5t-197.5 76.5h-213v-546z" />
    <glyph glyph-name="Dcroat" unicode="&#x110;" horiz-adv-x="799" 
d="M98 700h295q153 0 257.5 -99.5t104.5 -254.5q0 -152 -103 -249t-253 -97h-301v319h-54v74h54v307zM180 77h219q114 0 193 74t79 195q0 124 -80.5 200.5t-197.5 76.5h-213v-230h178v-74h-178v-242z" />
    <glyph glyph-name="dcroat" unicode="&#x111;" horiz-adv-x="799" 
d="M98 700h295q153 0 257.5 -99.5t104.5 -254.5q0 -152 -103 -249t-253 -97h-301v319h-54v74h54v307zM180 77h219q114 0 193 74t79 195q0 124 -80.5 200.5t-197.5 76.5h-213v-230h178v-74h-178v-242z" />
    <glyph glyph-name="Emacron" unicode="&#x112;" horiz-adv-x="629" 
d="M498 843v-64h-323v64h323zM175 77h391v-77h-473v700h467v-77h-385v-216h309v-73h-309v-257z" />
    <glyph glyph-name="emacron" unicode="&#x113;" horiz-adv-x="629" 
d="M495 843v-64h-323v64h323zM175 77h391v-77h-473v700h467v-77h-385v-216h309v-73h-309v-257z" />
    <glyph glyph-name="Edotaccent" unicode="&#x116;" horiz-adv-x="629" 
d="M332 765q-20 0 -34.5 14t-14.5 34t14.5 34.5t34.5 14.5t34 -14.5t14 -34.5t-14 -34t-34 -14zM175 77h391v-77h-473v700h467v-77h-385v-216h309v-73h-309v-257z" />
    <glyph glyph-name="edotaccent" unicode="&#x117;" horiz-adv-x="629" 
d="M332 765q-20 0 -34.5 14t-14.5 34t14.5 34.5t34.5 14.5t34 -14.5t14 -34.5t-14 -34t-34 -14zM175 77h391v-77h-473v700h467v-77h-385v-216h309v-73h-309v-257z" />
    <glyph glyph-name="Eogonek" unicode="&#x118;" horiz-adv-x="629" 
d="M527 -118l47 -26q-46 -97 -149 -97q-65 0 -106.5 37.5t-41.5 98.5q0 65 47 105h-231v700h467v-77h-385v-216h309v-73h-309v-257h391v-77h-92q-55 0 -96 -25.5t-41 -79.5q0 -35 23.5 -59t63.5 -24q72 0 103 70z" />
    <glyph glyph-name="eogonek" unicode="&#x119;" horiz-adv-x="629" 
d="M546 -118l47 -26q-46 -97 -149 -97q-65 0 -106.5 37.5t-41.5 98.5q0 65 47 105h-250v700h467v-77h-385v-216h309v-73h-309v-257h391v-77h-73q-55 0 -96 -25.5t-41 -79.5q0 -35 23.5 -59t63.5 -24q72 0 103 70z" />
    <glyph glyph-name="Ecaron" unicode="&#x11a;" horiz-adv-x="629" 
d="M498 869l-166 -141l-167 141l42 43l125 -105l125 105zM175 77h391v-77h-473v700h467v-77h-385v-216h309v-73h-309v-257z" />
    <glyph glyph-name="ecaron" unicode="&#x11b;" horiz-adv-x="629" 
d="M495 869l-166 -141l-167 141l42 43l125 -105l125 105zM175 77h391v-77h-473v700h467v-77h-385v-216h309v-73h-309v-257z" />
    <glyph glyph-name="Gcircumflex" unicode="&#x11c;" horiz-adv-x="795" 
d="M230 785l167 141l166 -141l-41 -43l-125 105l-125 -105zM664 104h-1q-35 -43 -101 -80.5t-155 -37.5q-152 0 -257.5 103.5t-105.5 260.5t105.5 260.5t257.5 103.5q106 -2 188.5 -51t129.5 -133l-83 -21q-36 58 -99 91.5t-136 33.5q-121 0 -200 -79t-79 -205t80.5 -205
t201.5 -79q94 0 162 44t92 97v87h-214v68h285v-363h-72v25v21v17t0.5 14t0.5 10.5v8v5.5v3v1z" />
    <glyph glyph-name="gcircumflex" unicode="&#x11d;" horiz-adv-x="795" 
d="M230 785l167 141l166 -141l-41 -43l-125 105l-125 -105zM664 104h-1q-35 -43 -101 -80.5t-155 -37.5q-152 0 -257.5 103.5t-105.5 260.5t105.5 260.5t257.5 103.5q106 -2 188.5 -51t129.5 -133l-83 -21q-36 58 -99 91.5t-136 33.5q-121 0 -200 -79t-79 -205t80.5 -205
t201.5 -79q94 0 162 44t92 97v87h-214v68h285v-363h-72v25v21v17t0.5 14t0.5 10.5v8v5.5v3v1z" />
    <glyph glyph-name="Gbreve" unicode="&#x11e;" horiz-adv-x="795" 
d="M252 867h60q7 -29 31.5 -49.5t57.5 -20.5q32 0 57 20.5t32 49.5h60q-11 -53 -52.5 -87.5t-96.5 -34.5q-56 0 -97 34t-52 88zM664 104h-1q-35 -43 -101 -80.5t-155 -37.5q-152 0 -257.5 103.5t-105.5 260.5t105.5 260.5t257.5 103.5q106 -2 188.5 -51t129.5 -133l-83 -21
q-36 58 -99 91.5t-136 33.5q-121 0 -200 -79t-79 -205t80.5 -205t201.5 -79q94 0 162 44t92 97v87h-214v68h285v-363h-72v25v21v17t0.5 14t0.5 10.5v8v5.5v3v1z" />
    <glyph glyph-name="gbreve" unicode="&#x11f;" horiz-adv-x="795" 
d="M252 867h60q7 -29 31.5 -49.5t57.5 -20.5q32 0 57 20.5t32 49.5h60q-11 -53 -52.5 -87.5t-96.5 -34.5q-56 0 -97 34t-52 88zM664 104h-1q-35 -43 -101 -80.5t-155 -37.5q-152 0 -257.5 103.5t-105.5 260.5t105.5 260.5t257.5 103.5q106 -2 188.5 -51t129.5 -133l-83 -21
q-36 58 -99 91.5t-136 33.5q-121 0 -200 -79t-79 -205t80.5 -205t201.5 -79q94 0 162 44t92 97v87h-214v68h285v-363h-72v25v21v17t0.5 14t0.5 10.5v8v5.5v3v1z" />
    <glyph glyph-name="Gdotaccent" unicode="&#x120;" horiz-adv-x="795" 
d="M399 765q-20 0 -34.5 14t-14.5 34t14.5 34.5t34.5 14.5t34 -14.5t14 -34.5t-14 -34t-34 -14zM664 104h-1q-35 -43 -101 -80.5t-155 -37.5q-152 0 -257.5 103.5t-105.5 260.5t105.5 260.5t257.5 103.5q106 -2 188.5 -51t129.5 -133l-83 -21q-36 58 -99 91.5t-136 33.5
q-121 0 -200 -79t-79 -205t80.5 -205t201.5 -79q94 0 162 44t92 97v87h-214v68h285v-363h-72v25v21v17t0.5 14t0.5 10.5v8v5.5v3v1z" />
    <glyph glyph-name="gdotaccent" unicode="&#x121;" horiz-adv-x="795" 
d="M399 765q-20 0 -34.5 14t-14.5 34t14.5 34.5t34.5 14.5t34 -14.5t14 -34.5t-14 -34t-34 -14zM664 104h-1q-35 -43 -101 -80.5t-155 -37.5q-152 0 -257.5 103.5t-105.5 260.5t105.5 260.5t257.5 103.5q106 -2 188.5 -51t129.5 -133l-83 -21q-36 58 -99 91.5t-136 33.5
q-121 0 -200 -79t-79 -205t80.5 -205t201.5 -79q94 0 162 44t92 97v87h-214v68h285v-363h-72v25v21v17t0.5 14t0.5 10.5v8v5.5v3v1z" />
    <glyph glyph-name="Gcommaaccent" unicode="&#x122;" horiz-adv-x="795" 
d="M664 104h-1q-35 -43 -101 -80.5t-155 -37.5q-152 0 -257.5 103.5t-105.5 260.5t105.5 260.5t257.5 103.5q106 -2 188.5 -51t129.5 -133l-83 -21q-36 58 -99 91.5t-136 33.5q-121 0 -200 -79t-79 -205t80.5 -205t201.5 -79q94 0 162 44t92 97v87h-214v68h285v-363h-72v25
v21v17t0.5 14t0.5 10.5v8v5.5v3v1zM393 -138l10 4l-10 1q-16 0 -29 13t-13 33q0 21 14 34.5t35 13.5t35 -16.5t14 -41.5q0 -41 -22 -82.5t-54 -71.5h-35q22 21 38.5 53t16.5 60z" />
    <glyph glyph-name="gcommaaccent" unicode="&#x123;" horiz-adv-x="795" 
d="M664 104h-1q-35 -43 -101 -80.5t-155 -37.5q-152 0 -257.5 103.5t-105.5 260.5t105.5 260.5t257.5 103.5q106 -2 188.5 -51t129.5 -133l-83 -21q-36 58 -99 91.5t-136 33.5q-121 0 -200 -79t-79 -205t80.5 -205t201.5 -79q94 0 162 44t92 97v87h-214v68h285v-363h-72v25
v21v17t0.5 14t0.5 10.5v8v5.5v3v1zM393 -138l10 4l-10 1q-16 0 -29 13t-13 33q0 21 14 34.5t35 13.5t35 -16.5t14 -41.5q0 -41 -22 -82.5t-54 -71.5h-35q22 21 38.5 53t16.5 60z" />
    <glyph glyph-name="Hcircumflex" unicode="&#x124;" horiz-adv-x="733" 
d="M364 847l-125 -105l-42 43l167 141l166 -141l-41 -43zM558 700h81v-700h-81v324h-383v-324h-82v700h82v-299h383v299z" />
    <glyph glyph-name="hcircumflex" unicode="&#x125;" horiz-adv-x="733" 
d="M364 847l-125 -105l-42 43l167 141l166 -141l-41 -43zM558 700h81v-700h-81v324h-383v-324h-82v700h82v-299h383v299z" />
    <glyph glyph-name="Hbar" unicode="&#x126;" horiz-adv-x="733" 
d="M704 624v-70h-65v-554h-81v324h-383v-324h-82v554h-64v70h64v76h82v-76h383v76h81v-76h65zM558 401v153h-383v-153h383z" />
    <glyph glyph-name="hbar" unicode="&#x127;" horiz-adv-x="733" 
d="M704 624v-70h-65v-554h-81v324h-383v-324h-82v554h-64v70h64v76h82v-76h383v76h81v-76h65zM558 401v153h-383v-153h383z" />
    <glyph glyph-name="Imacron" unicode="&#x12a;" horiz-adv-x="268" 
d="M-23 843h323v-64h-323v64zM175 0h-82v700h82v-700z" />
    <glyph glyph-name="imacron" unicode="&#x12b;" horiz-adv-x="268" 
d="M-23 843h323v-64h-323v64zM175 0h-82v700h82v-700z" />
    <glyph glyph-name="Iogonek" unicode="&#x12e;" horiz-adv-x="268" 
d="M204 -118l47 -26q-46 -97 -149 -97q-65 0 -106.5 37.5t-41.5 98.5q0 63 43.5 102t95.5 42v661h82v-700h-24q-55 0 -96 -25.5t-41 -79.5q0 -35 23.5 -59t63.5 -24q72 0 103 70z" />
    <glyph glyph-name="iogonek" unicode="&#x12f;" horiz-adv-x="268" 
d="M204 -118l47 -26q-46 -97 -149 -97q-65 0 -106.5 37.5t-41.5 98.5q0 63 43.5 102t95.5 42v661h82v-700h-24q-55 0 -96 -25.5t-41 -79.5q0 -35 23.5 -59t63.5 -24q72 0 103 70z" />
    <glyph glyph-name="Idotaccent" unicode="&#x130;" horiz-adv-x="268" 
d="M134 765q-20 0 -34.5 14t-14.5 34t14.5 34.5t34.5 14.5t34 -14.5t14 -34.5t-14 -34t-34 -14zM175 0h-82v700h82v-700z" />
    <glyph glyph-name="dotlessi" unicode="&#x131;" horiz-adv-x="268" 
d="M175 0h-82v700h82v-700z" />
    <glyph glyph-name="IJ" unicode="&#x132;" horiz-adv-x="911" 
d="M175 0h-82v700h82v-700zM755 700h82v-410q0 -144 -77 -224.5t-216 -80.5q-97 0 -171.5 50.5t-102.5 130.5l81 22q21 -59 73 -92.5t120 -33.5q102 0 156.5 59t54.5 164v415z" />
    <glyph glyph-name="ij" unicode="&#x133;" horiz-adv-x="911" 
d="M175 0h-82v700h82v-700zM755 700h82v-410q0 -144 -77 -224.5t-216 -80.5q-97 0 -171.5 50.5t-102.5 130.5l81 22q21 -59 73 -92.5t120 -33.5q102 0 156.5 59t54.5 164v415z" />
    <glyph glyph-name="Jcircumflex" unicode="&#x134;" horiz-adv-x="655" 
d="M370 785l167 141l166 -141l-41 -43l-125 105l-125 -105zM499 700h82v-410q0 -144 -77 -224.5t-216 -80.5q-97 0 -171.5 50.5t-102.5 130.5l81 22q21 -59 73 -92.5t120 -33.5q102 0 156.5 59t54.5 164v415z" />
    <glyph glyph-name="jcircumflex" unicode="&#x135;" horiz-adv-x="655" 
d="M370 785l167 141l166 -141l-41 -43l-125 105l-125 -105zM499 700h82v-410q0 -144 -77 -224.5t-216 -80.5q-97 0 -171.5 50.5t-102.5 130.5l81 22q21 -59 73 -92.5t120 -33.5q102 0 156.5 59t54.5 164v415z" />
    <glyph glyph-name="Kcommaaccent" unicode="&#x136;" horiz-adv-x="689" 
d="M344 414l307 -414h-97l-265 359l-114 -114v-245h-82v700h82v-187q0 -47 -0.5 -93.5t-0.5 -56.5v-19h1l17 18q17 17 47 47.5t53 53.5l237 237h101zM347 -134l-10 1q-16 0 -29 13t-13 33q0 21 14 34.5t35 13.5t35 -16.5t14 -41.5q0 -41 -22 -82.5t-54 -71.5h-35
q22 21 38.5 53t16.5 60z" />
    <glyph glyph-name="kcommaaccent" unicode="&#x137;" horiz-adv-x="689" 
d="M344 414l307 -414h-97l-265 359l-114 -114v-245h-82v700h82v-187q0 -47 -0.5 -93.5t-0.5 -56.5v-19h1l17 18q17 17 47 47.5t53 53.5l237 237h101zM356 -134l-10 1q-16 0 -29 13t-13 33q0 21 14 34.5t35 13.5t35 -16.5t14 -41.5q0 -41 -22 -82.5t-54 -71.5h-35
q22 21 38.5 53t16.5 60z" />
    <glyph glyph-name="Lacute" unicode="&#x139;" horiz-adv-x="570" 
d="M253 900l30 -58l-219 -104l-26 46zM175 77h375v-77h-457v700h82v-623z" />
    <glyph glyph-name="lacute" unicode="&#x13a;" horiz-adv-x="570" 
d="M253 900l30 -58l-219 -104l-26 46zM175 77h375v-77h-457v700h82v-623z" />
    <glyph glyph-name="Lcommaaccent" unicode="&#x13b;" horiz-adv-x="570" 
d="M175 77h375v-77h-457v700h82v-623zM321 -134l-10 1q-16 0 -29 13t-13 33q0 21 14 34.5t35 13.5t35 -16.5t14 -41.5q0 -41 -22 -82.5t-54 -71.5h-35q22 21 38.5 53t16.5 60z" />
    <glyph glyph-name="lcommaaccent" unicode="&#x13c;" horiz-adv-x="570" 
d="M175 77h375v-77h-457v700h82v-623zM310 -134l-10 1q-16 0 -29 13t-13 33q0 21 14 34.5t35 13.5t35 -16.5t14 -41.5q0 -41 -22 -82.5t-54 -71.5h-35q22 21 38.5 53t16.5 60z" />
    <glyph glyph-name="Lcaron" unicode="&#x13d;" horiz-adv-x="570" 
d="M353 616l-10 1q-16 0 -30 13t-14 34t15.5 35t36.5 14t35 -16.5t14 -42.5q0 -43 -22.5 -85.5t-54.5 -73.5h-36q23 21 39.5 54t16.5 62zM175 77h375v-77h-457v700h82v-623z" />
    <glyph glyph-name="lcaron" unicode="&#x13e;" horiz-adv-x="570" 
d="M318 623l-11 1q-16 0 -29.5 13t-13.5 34t15 35t36 14t35.5 -16.5t14.5 -42.5q0 -43 -22.5 -86t-55.5 -74h-36q23 21 39.5 54.5t16.5 62.5zM175 77h375v-77h-457v700h82v-623z" />
    <glyph glyph-name="Ldot" unicode="&#x13f;" horiz-adv-x="570" 
d="M175 77h375v-77h-457v700h82v-623zM380 333q-20 0 -34 14.5t-14 34.5t14 34.5t34 14.5t34 -14.5t14 -34.5t-14 -34.5t-34 -14.5z" />
    <glyph glyph-name="ldot" unicode="&#x140;" horiz-adv-x="570" 
d="M175 77h375v-77h-457v700h82v-623zM380 333q-20 0 -34 14.5t-14 34.5t14 34.5t34 14.5t34 -14.5t14 -34.5t-14 -34.5t-34 -14.5z" />
    <glyph glyph-name="Lslash" unicode="&#x141;" horiz-adv-x="570" 
d="M175 77h375v-77h-457v700h82v-336l278 142v-78l-278 -141v-210z" />
    <glyph glyph-name="lslash" unicode="&#x142;" horiz-adv-x="570" 
d="M175 77h375v-77h-457v700h82v-336l278 142v-78l-278 -141v-210z" />
    <glyph glyph-name="Nacute" unicode="&#x143;" horiz-adv-x="760" 
d="M499 900l30 -58l-219 -104l-26 46zM585 700h82v-700h-77l-311 419q-25 35 -52 73t-40 56l-13 18h-1l1 -24q0 -25 0.5 -76t0.5 -99v-367h-82v700h77l311 -418q23 -30 49.5 -67t41.5 -57l14 -20h1l-1 26q0 26 -0.5 76t-0.5 92v368z" />
    <glyph glyph-name="nacute" unicode="&#x144;" horiz-adv-x="760" 
d="M499 900l30 -58l-219 -104l-26 46zM585 700h82v-700h-77l-311 419q-25 35 -52 73t-40 56l-13 18h-1l1 -24q0 -25 0.5 -76t0.5 -99v-367h-82v700h77l311 -418q23 -30 49.5 -67t41.5 -57l14 -20h1l-1 26q0 26 -0.5 76t-0.5 92v368z" />
    <glyph glyph-name="Ncommaaccent" unicode="&#x145;" horiz-adv-x="760" 
d="M585 700h82v-700h-77l-311 419q-25 35 -52 73t-40 56l-13 18h-1l1 -24q0 -25 0.5 -76t0.5 -99v-367h-82v700h77l311 -418q23 -30 49.5 -67t41.5 -57l14 -20h1l-1 26q0 26 -0.5 76t-0.5 92v368zM380 -138l10 4l-10 1q-16 0 -29 13t-13 33q0 21 14 34.5t35 13.5t35 -16.5
t14 -41.5q0 -41 -22 -82.5t-54 -71.5h-35q22 21 38.5 53t16.5 60z" />
    <glyph glyph-name="ncommaaccent" unicode="&#x146;" horiz-adv-x="760" 
d="M585 700h82v-700h-77l-311 419q-25 35 -52 73t-40 56l-13 18h-1l1 -24q0 -25 0.5 -76t0.5 -99v-367h-82v700h77l311 -418q23 -30 49.5 -67t41.5 -57l14 -20h1l-1 26q0 26 -0.5 76t-0.5 92v368zM380 -138l10 4l-10 1q-16 0 -29 13t-13 33q0 21 14 34.5t35 13.5t35 -16.5
t14 -41.5q0 -41 -22 -82.5t-54 -71.5h-35q22 21 38.5 53t16.5 60z" />
    <glyph glyph-name="Ncaron" unicode="&#x147;" horiz-adv-x="760" 
d="M215 869l167 -141l166 141l-41 43l-125 -105l-125 105zM585 700h82v-700h-77l-311 419q-25 35 -52 73t-40 56l-13 18h-1l1 -24q0 -25 0.5 -76t0.5 -99v-367h-82v700h77l311 -418q23 -30 49.5 -67t41.5 -57l14 -20h1l-1 26q0 26 -0.5 76t-0.5 92v368z" />
    <glyph glyph-name="ncaron" unicode="&#x148;" horiz-adv-x="760" 
d="M215 869l167 -141l166 141l-41 43l-125 -105l-125 105zM585 700h82v-700h-77l-311 419q-25 35 -52 73t-40 56l-13 18h-1l1 -24q0 -25 0.5 -76t0.5 -99v-367h-82v700h77l311 -418q23 -30 49.5 -67t41.5 -57l14 -20h1l-1 26q0 26 -0.5 76t-0.5 92v368z" />
    <glyph glyph-name="Eng" unicode="&#x14a;" horiz-adv-x="760" 
d="M585 700h82v-700q0 -89 -52 -146.5t-132 -57.5h-41v68h35q51 0 82 37.5t31 98.5l-311 419q-25 35 -52 73t-40 56l-13 18h-1l1 -24q0 -25 0.5 -76t0.5 -99v-367h-82v700h77l311 -418q23 -30 49.5 -67t41.5 -57l14 -20h1l-1 26q0 26 -0.5 76t-0.5 92v368z" />
    <glyph glyph-name="eng" unicode="&#x14b;" horiz-adv-x="760" 
d="M585 700h82v-700q0 -89 -52 -146.5t-132 -57.5h-41v68h35q51 0 82 37.5t31 98.5l-311 419q-25 35 -52 73t-40 56l-13 18h-1l1 -24q0 -25 0.5 -76t0.5 -99v-367h-82v700h77l311 -418q23 -30 49.5 -67t41.5 -57l14 -20h1l-1 26q0 26 -0.5 76t-0.5 92v368z" />
    <glyph glyph-name="Omacron" unicode="&#x14c;" horiz-adv-x="814" 
d="M255 843h323v-64h-323v64zM44 350q0 157 105.5 260.5t257.5 103.5q153 0 258.5 -103.5t105.5 -260.5t-105.5 -260.5t-258.5 -103.5q-152 0 -257.5 103.5t-105.5 260.5zM128 350q0 -125 79.5 -204.5t199.5 -79.5t199.5 79.5t79.5 204.5q0 126 -79.5 205t-199.5 79
q-121 0 -200 -79t-79 -205z" />
    <glyph glyph-name="omacron" unicode="&#x14d;" horiz-adv-x="814" 
d="M253 843h323v-64h-323v64zM44 350q0 157 105.5 260.5t257.5 103.5q153 0 258.5 -103.5t105.5 -260.5t-105.5 -260.5t-258.5 -103.5q-152 0 -257.5 103.5t-105.5 260.5zM128 350q0 -125 79.5 -204.5t199.5 -79.5t199.5 79.5t79.5 204.5q0 126 -79.5 205t-199.5 79
q-121 0 -200 -79t-79 -205z" />
    <glyph glyph-name="Ohungarumlaut" unicode="&#x150;" horiz-adv-x="814" 
d="M455 900l30 -58l-219 -104l-26 46zM655 900l30 -58l-219 -104l-26 46zM44 350q0 157 105.5 260.5t257.5 103.5q153 0 258.5 -103.5t105.5 -260.5t-105.5 -260.5t-258.5 -103.5q-152 0 -257.5 103.5t-105.5 260.5zM128 350q0 -125 79.5 -204.5t199.5 -79.5t199.5 79.5
t79.5 204.5q0 126 -79.5 205t-199.5 79q-121 0 -200 -79t-79 -205z" />
    <glyph glyph-name="ohungarumlaut" unicode="&#x151;" horiz-adv-x="814" 
d="M453 900l30 -58l-219 -104l-26 46zM653 900l30 -58l-219 -104l-26 46zM44 350q0 157 105.5 260.5t257.5 103.5q153 0 258.5 -103.5t105.5 -260.5t-105.5 -260.5t-258.5 -103.5q-152 0 -257.5 103.5t-105.5 260.5zM128 350q0 -125 79.5 -204.5t199.5 -79.5t199.5 79.5
t79.5 204.5q0 126 -79.5 205t-199.5 79q-121 0 -200 -79t-79 -205z" />
    <glyph glyph-name="OE" unicode="&#x152;" horiz-adv-x="1002" 
d="M549 77h391v-77h-471q-31 -4 -72 -4q-151 0 -252 99.5t-101 254.5t101 254.5t252 99.5q44 0 72 -4h465v-77h-385v-216h309v-73h-309v-257zM469 88v524q-30 12 -72 12q-119 0 -194 -74.5t-75 -199.5q0 -123 75 -198.5t194 -75.5q42 0 72 12z" />
    <glyph glyph-name="oe" unicode="&#x153;" horiz-adv-x="1002" 
d="M549 77h391v-77h-471q-31 -4 -72 -4q-151 0 -252 99.5t-101 254.5t101 254.5t252 99.5q44 0 72 -4h465v-77h-385v-216h309v-73h-309v-257zM469 88v524q-30 12 -72 12q-119 0 -194 -74.5t-75 -199.5q0 -123 75 -198.5t194 -75.5q42 0 72 12z" />
    <glyph glyph-name="Racute" unicode="&#x154;" horiz-adv-x="637" 
d="M446 842l-219 -104l-26 46l215 116zM592 0h-92l-158 262q-11 -1 -36 -1h-131v-261h-82v700h213q122 0 192 -59.5t70 -161.5q0 -75 -38 -126.5t-108 -74.5zM175 334h139q82 0 126 40t44 105q0 67 -45 105.5t-125 38.5h-139v-289z" />
    <glyph glyph-name="racute" unicode="&#x155;" horiz-adv-x="637" 
d="M470 842l-219 -104l-26 46l215 116zM592 0h-92l-158 262q-11 -1 -36 -1h-131v-261h-82v700h213q122 0 192 -59.5t70 -161.5q0 -75 -38 -126.5t-108 -74.5zM175 334h139q82 0 126 40t44 105q0 67 -45 105.5t-125 38.5h-139v-289z" />
    <glyph glyph-name="Rcommaaccent" unicode="&#x156;" horiz-adv-x="637" 
d="M422 278l170 -278h-92l-158 262q-11 -1 -36 -1h-131v-261h-82v700h213q122 0 192 -59.5t70 -161.5q0 -75 -38 -126.5t-108 -74.5zM175 334h139q82 0 126 40t44 105q0 67 -45 105.5t-125 38.5h-139v-289zM317 -134l-10 1q-16 0 -29 13t-13 33q0 21 14 34.5t35 13.5
t35 -16.5t14 -41.5q0 -41 -22 -82.5t-54 -71.5h-35q22 21 38.5 53t16.5 60z" />
    <glyph glyph-name="rcommaaccent" unicode="&#x157;" horiz-adv-x="637" 
d="M422 278l170 -278h-92l-158 262q-11 -1 -36 -1h-131v-261h-82v700h213q122 0 192 -59.5t70 -161.5q0 -75 -38 -126.5t-108 -74.5zM175 334h139q82 0 126 40t44 105q0 67 -45 105.5t-125 38.5h-139v-289zM337 -134l-10 1q-16 0 -29 13t-13 33q0 21 14 34.5t35 13.5
t35 -16.5t14 -41.5q0 -41 -22 -82.5t-54 -71.5h-35q22 21 38.5 53t16.5 60z" />
    <glyph glyph-name="Rcaron" unicode="&#x158;" horiz-adv-x="637" 
d="M465 869l-166 -141l-167 141l42 43l125 -105l125 105zM592 0h-92l-158 262q-11 -1 -36 -1h-131v-261h-82v700h213q122 0 192 -59.5t70 -161.5q0 -75 -38 -126.5t-108 -74.5zM175 334h139q82 0 126 40t44 105q0 67 -45 105.5t-125 38.5h-139v-289z" />
    <glyph glyph-name="rcaron" unicode="&#x159;" horiz-adv-x="637" 
d="M465 869l-166 -141l-167 141l42 43l125 -105l125 105zM592 0h-92l-158 262q-11 -1 -36 -1h-131v-261h-82v700h213q122 0 192 -59.5t70 -161.5q0 -75 -38 -126.5t-108 -74.5zM175 334h139q82 0 126 40t44 105q0 67 -45 105.5t-125 38.5h-139v-289z" />
    <glyph glyph-name="Sacute" unicode="&#x15a;" horiz-adv-x="596" 
d="M419 900l30 -58l-219 -104l-26 46zM547 527l-78 -21q-11 63 -59.5 99.5t-115.5 36.5q-70 0 -113.5 -31t-43.5 -83q0 -21 10.5 -38.5t24.5 -29t40 -22.5t46 -17.5t52 -16.5q11 -3 17 -5q38 -11 62.5 -20t60 -27t56.5 -38t36.5 -52.5t15.5 -71.5q0 -89 -71 -146.5
t-185 -57.5q-109 0 -179.5 57t-87.5 149l79 21q8 -65 58.5 -109t132.5 -44q76 0 121.5 36t45.5 92q0 21 -6 38.5t-21 31.5t-27.5 23.5t-38 19.5t-39.5 14.5t-45 13.5t-43 13q-34 11 -52.5 17.5t-50.5 22.5t-49.5 33t-31.5 45.5t-14 63.5q0 82 69 136t174 54q95 0 164 -51.5
t86 -135.5z" />
    <glyph glyph-name="sacute" unicode="&#x15b;" horiz-adv-x="596" 
d="M423 900l30 -58l-219 -104l-26 46zM547 527l-78 -21q-11 63 -59.5 99.5t-115.5 36.5q-70 0 -113.5 -31t-43.5 -83q0 -21 10.5 -38.5t24.5 -29t40 -22.5t46 -17.5t52 -16.5q11 -3 17 -5q38 -11 62.5 -20t60 -27t56.5 -38t36.5 -52.5t15.5 -71.5q0 -89 -71 -146.5
t-185 -57.5q-109 0 -179.5 57t-87.5 149l79 21q8 -65 58.5 -109t132.5 -44q76 0 121.5 36t45.5 92q0 21 -6 38.5t-21 31.5t-27.5 23.5t-38 19.5t-39.5 14.5t-45 13.5t-43 13q-34 11 -52.5 17.5t-50.5 22.5t-49.5 33t-31.5 45.5t-14 63.5q0 82 69 136t174 54q95 0 164 -51.5
t86 -135.5z" />
    <glyph glyph-name="Scircumflex" unicode="&#x15c;" horiz-adv-x="596" 
d="M133 785l167 141l166 -141l-41 -43l-125 105l-125 -105zM547 527l-78 -21q-11 63 -59.5 99.5t-115.5 36.5q-70 0 -113.5 -31t-43.5 -83q0 -21 10.5 -38.5t24.5 -29t40 -22.5t46 -17.5t52 -16.5q11 -3 17 -5q38 -11 62.5 -20t60 -27t56.5 -38t36.5 -52.5t15.5 -71.5
q0 -89 -71 -146.5t-185 -57.5q-109 0 -179.5 57t-87.5 149l79 21q8 -65 58.5 -109t132.5 -44q76 0 121.5 36t45.5 92q0 21 -6 38.5t-21 31.5t-27.5 23.5t-38 19.5t-39.5 14.5t-45 13.5t-43 13q-34 11 -52.5 17.5t-50.5 22.5t-49.5 33t-31.5 45.5t-14 63.5q0 82 69 136
t174 54q95 0 164 -51.5t86 -135.5z" />
    <glyph glyph-name="scircumflex" unicode="&#x15d;" horiz-adv-x="596" 
d="M133 785l167 141l166 -141l-41 -43l-125 105l-125 -105zM547 527l-78 -21q-11 63 -59.5 99.5t-115.5 36.5q-70 0 -113.5 -31t-43.5 -83q0 -21 10.5 -38.5t24.5 -29t40 -22.5t46 -17.5t52 -16.5q11 -3 17 -5q38 -11 62.5 -20t60 -27t56.5 -38t36.5 -52.5t15.5 -71.5
q0 -89 -71 -146.5t-185 -57.5q-109 0 -179.5 57t-87.5 149l79 21q8 -65 58.5 -109t132.5 -44q76 0 121.5 36t45.5 92q0 21 -6 38.5t-21 31.5t-27.5 23.5t-38 19.5t-39.5 14.5t-45 13.5t-43 13q-34 11 -52.5 17.5t-50.5 22.5t-49.5 33t-31.5 45.5t-14 63.5q0 82 69 136
t174 54q95 0 164 -51.5t86 -135.5z" />
    <glyph glyph-name="Scedilla" unicode="&#x15e;" horiz-adv-x="596" 
d="M547 527l-78 -21q-11 63 -59.5 99.5t-115.5 36.5q-70 0 -113.5 -31t-43.5 -83q0 -21 10.5 -38.5t24.5 -29t40 -22.5t46 -17.5t52 -16.5q11 -3 17 -5q38 -11 62.5 -20t60 -27t56.5 -38t36.5 -52.5t15.5 -71.5q0 -83 -61 -139t-163 -64l-14 -37q45 1 74.5 -24.5t29.5 -67.5
q0 -44 -30 -69t-77 -25h-72l19 48h53q26 0 41 12.5t15 32.5q0 21 -15.5 34t-40.5 13h-63l29 82q-102 6 -167 62.5t-81 143.5l79 21q8 -65 58.5 -109t132.5 -44q76 0 121.5 36t45.5 92q0 21 -6 38.5t-21 31.5t-27.5 23.5t-38 19.5t-39.5 14.5t-45 13.5t-43 13
q-34 11 -52.5 17.5t-50.5 22.5t-49.5 33t-31.5 45.5t-14 63.5q0 82 69 136t174 54q95 0 164 -51.5t86 -135.5z" />
    <glyph glyph-name="scedilla" unicode="&#x15f;" horiz-adv-x="596" 
d="M547 527l-78 -21q-11 63 -59.5 99.5t-115.5 36.5q-70 0 -113.5 -31t-43.5 -83q0 -21 10.5 -38.5t24.5 -29t40 -22.5t46 -17.5t52 -16.5q11 -3 17 -5q38 -11 62.5 -20t60 -27t56.5 -38t36.5 -52.5t15.5 -71.5q0 -82 -60 -137.5t-160 -64.5l-14 -38q45 1 74.5 -24.5
t29.5 -67.5q0 -44 -30 -69t-77 -25h-72l19 48h53q26 0 41 12.5t15 32.5q0 21 -15.5 34t-40.5 13h-63l29 82q-103 4 -169.5 61t-82.5 145l79 21q8 -65 58.5 -109t132.5 -44q76 0 121.5 36t45.5 92q0 21 -6 38.5t-21 31.5t-27.5 23.5t-38 19.5t-39.5 14.5t-45 13.5t-43 13
q-34 11 -52.5 17.5t-50.5 22.5t-49.5 33t-31.5 45.5t-14 63.5q0 82 69 136t174 54q95 0 164 -51.5t86 -135.5z" />
    <glyph glyph-name="Scaron" unicode="&#x160;" horiz-adv-x="596" 
d="M135 869l167 -141l166 141l-41 43l-125 -105l-125 105zM547 527l-78 -21q-11 63 -59.5 99.5t-115.5 36.5q-70 0 -113.5 -31t-43.5 -83q0 -21 10.5 -38.5t24.5 -29t40 -22.5t46 -17.5t52 -16.5q11 -3 17 -5q38 -11 62.5 -20t60 -27t56.5 -38t36.5 -52.5t15.5 -71.5
q0 -89 -71 -146.5t-185 -57.5q-109 0 -179.5 57t-87.5 149l79 21q8 -65 58.5 -109t132.5 -44q76 0 121.5 36t45.5 92q0 21 -6 38.5t-21 31.5t-27.5 23.5t-38 19.5t-39.5 14.5t-45 13.5t-43 13q-34 11 -52.5 17.5t-50.5 22.5t-49.5 33t-31.5 45.5t-14 63.5q0 82 69 136
t174 54q95 0 164 -51.5t86 -135.5z" />
    <glyph glyph-name="scaron" unicode="&#x161;" horiz-adv-x="596" 
d="M139 869l167 -141l166 141l-41 43l-125 -105l-125 105zM547 527l-78 -21q-11 63 -59.5 99.5t-115.5 36.5q-70 0 -113.5 -31t-43.5 -83q0 -21 10.5 -38.5t24.5 -29t40 -22.5t46 -17.5t52 -16.5q11 -3 17 -5q38 -11 62.5 -20t60 -27t56.5 -38t36.5 -52.5t15.5 -71.5
q0 -89 -71 -146.5t-185 -57.5q-109 0 -179.5 57t-87.5 149l79 21q8 -65 58.5 -109t132.5 -44q76 0 121.5 36t45.5 92q0 21 -6 38.5t-21 31.5t-27.5 23.5t-38 19.5t-39.5 14.5t-45 13.5t-43 13q-34 11 -52.5 17.5t-50.5 22.5t-49.5 33t-31.5 45.5t-14 63.5q0 82 69 136
t174 54q95 0 164 -51.5t86 -135.5z" />
    <glyph glyph-name="Tcedilla" unicode="&#x162;" horiz-adv-x="594" 
d="M337 0h-19l-19 -50q45 1 74.5 -24.5t29.5 -67.5q0 -44 -30 -69t-77 -25h-72l19 48h53q26 0 41 12.5t15 32.5q0 21 -15.5 34t-40.5 13h-63l34 96h-11v623h-234v77h550v-77h-235v-623z" />
    <glyph glyph-name="tcedilla" unicode="&#x163;" horiz-adv-x="594" 
d="M337 0h-19l-19 -50q45 1 74.5 -24.5t29.5 -67.5q0 -44 -30 -69t-77 -25h-72l19 48h53q26 0 41 12.5t15 32.5q0 21 -15.5 34t-40.5 13h-63l34 96h-11v623h-234v77h550v-77h-235v-623z" />
    <glyph glyph-name="Tcaron" unicode="&#x164;" horiz-adv-x="594" 
d="M469 869l-166 -141l-167 141l42 43l125 -105l125 105zM22 700h550v-77h-235v-623h-81v623h-234v77z" />
    <glyph glyph-name="tcaron" unicode="&#x165;" horiz-adv-x="594" 
d="M469 869l-166 -141l-167 141l42 43l125 -105l125 105zM22 700h550v-77h-235v-623h-81v623h-234v77z" />
    <glyph glyph-name="Tbar" unicode="&#x166;" horiz-adv-x="594" 
d="M572 623h-235v-210h124v-64h-124v-349h-81v349h-125v64h125v210h-234v77h550v-77z" />
    <glyph glyph-name="tbar" unicode="&#x167;" horiz-adv-x="594" 
d="M572 623h-235v-210h124v-64h-124v-349h-81v349h-125v64h125v210h-234v77h550v-77z" />
    <glyph glyph-name="Umacron" unicode="&#x16a;" horiz-adv-x="723" 
d="M207 843h323v-64h-323v64zM567 700h82v-410q0 -148 -75 -226.5t-213 -78.5t-212.5 78.5t-74.5 226.5v410h82v-411q0 -227 205 -227q206 0 206 227v411z" />
    <glyph glyph-name="umacron" unicode="&#x16b;" horiz-adv-x="723" 
d="M207 843h323v-64h-323v64zM567 700h82v-410q0 -148 -75 -226.5t-213 -78.5t-212.5 78.5t-74.5 226.5v410h82v-411q0 -227 205 -227q206 0 206 227v411z" />
    <glyph glyph-name="Ubreve" unicode="&#x16c;" horiz-adv-x="723" 
d="M217 867h60q7 -29 31.5 -49.5t57.5 -20.5q32 0 57 20.5t32 49.5h60q-11 -53 -52.5 -87.5t-96.5 -34.5q-56 0 -97 34t-52 88zM567 700h82v-410q0 -148 -75 -226.5t-213 -78.5t-212.5 78.5t-74.5 226.5v410h82v-411q0 -227 205 -227q206 0 206 227v411z" />
    <glyph glyph-name="ubreve" unicode="&#x16d;" horiz-adv-x="723" 
d="M217 867h60q7 -29 31.5 -49.5t57.5 -20.5q32 0 57 20.5t32 49.5h60q-11 -53 -52.5 -87.5t-96.5 -34.5q-56 0 -97 34t-52 88zM567 700h82v-410q0 -148 -75 -226.5t-213 -78.5t-212.5 78.5t-74.5 226.5v410h82v-411q0 -227 205 -227q206 0 206 227v411z" />
    <glyph glyph-name="Uring" unicode="&#x16e;" horiz-adv-x="723" 
d="M364 690q-46 0 -77.5 32t-31.5 77t31.5 77t77.5 32q45 0 77.5 -32t32.5 -77t-32.5 -77t-77.5 -32zM364 741q24 0 41.5 17.5t17.5 40.5q0 25 -17.5 42t-41.5 17t-41.5 -17t-17.5 -42q0 -23 17.5 -40.5t41.5 -17.5zM567 700h82v-410q0 -148 -75 -226.5t-213 -78.5
t-212.5 78.5t-74.5 226.5v410h82v-411q0 -227 205 -227q206 0 206 227v411z" />
    <glyph glyph-name="uring" unicode="&#x16f;" horiz-adv-x="723" 
d="M364 690q-46 0 -77.5 32t-31.5 77t31.5 77t77.5 32q45 0 77.5 -32t32.5 -77t-32.5 -77t-77.5 -32zM364 741q24 0 41.5 17.5t17.5 40.5q0 25 -17.5 42t-41.5 17t-41.5 -17t-17.5 -42q0 -23 17.5 -40.5t41.5 -17.5zM567 700h82v-410q0 -148 -75 -226.5t-213 -78.5
t-212.5 78.5t-74.5 226.5v410h82v-411q0 -227 205 -227q206 0 206 227v411z" />
    <glyph glyph-name="Uhungarumlaut" unicode="&#x170;" horiz-adv-x="723" 
d="M407 900l30 -58l-219 -104l-26 46zM607 900l30 -58l-219 -104l-26 46zM567 700h82v-410q0 -148 -75 -226.5t-213 -78.5t-212.5 78.5t-74.5 226.5v410h82v-411q0 -227 205 -227q206 0 206 227v411z" />
    <glyph glyph-name="uhungarumlaut" unicode="&#x171;" horiz-adv-x="723" 
d="M407 900l30 -58l-219 -104l-26 46zM607 900l30 -58l-219 -104l-26 46zM567 700h82v-410q0 -148 -75 -226.5t-213 -78.5t-212.5 78.5t-74.5 226.5v410h82v-411q0 -227 205 -227q206 0 206 227v411z" />
    <glyph glyph-name="Uogonek" unicode="&#x172;" horiz-adv-x="723" 
d="M567 700h82v-410q0 -123 -52.5 -198.5t-151.5 -97.5q-47 -17 -74 -40t-27 -62q0 -35 23.5 -57.5t61.5 -22.5q29 0 56.5 19.5t40.5 45.5l44 -29q-17 -36 -57 -62.5t-84 -26.5q-63 0 -103.5 35.5t-40.5 92.5q0 61 56 98q-129 6 -198 84t-69 221v410h82v-411
q0 -227 205 -227q206 0 206 227v411z" />
    <glyph glyph-name="uogonek" unicode="&#x173;" horiz-adv-x="723" 
d="M567 700h82v-410q0 -123 -52.5 -198.5t-151.5 -97.5q-47 -17 -74 -40t-27 -62q0 -35 23.5 -57.5t61.5 -22.5q29 0 56.5 19.5t40.5 45.5l44 -29q-17 -36 -57 -62.5t-84 -26.5q-63 0 -103.5 35.5t-40.5 92.5q0 61 56 98q-129 6 -198 84t-69 221v410h82v-411
q0 -227 205 -227q206 0 206 227v411z" />
    <glyph glyph-name="Wcircumflex" unicode="&#x174;" horiz-adv-x="980" 
d="M318 785l167 141l166 -141l-41 -43l-125 105l-125 -105zM869 700h85l-237 -700h-72l-116 368q-14 43 -23.5 78t-12.5 47l-3 12h-1l-3 -13q-3 -12 -12 -46.5t-23 -77.5l-116 -368h-72l-237 700h85l158 -473q8 -26 15.5 -52t11.5 -38l3 -12h1l3 12q3 12 10.5 38t16.5 52
l124 379h72l124 -379q9 -26 16.5 -52t10.5 -38l3 -12h1l3 12q4 12 11.5 38t15.5 52z" />
    <glyph glyph-name="wcircumflex" unicode="&#x175;" horiz-adv-x="980" 
d="M321 785l167 141l166 -141l-41 -43l-125 105l-125 -105zM869 700h85l-237 -700h-72l-116 368q-14 43 -23.5 78t-12.5 47l-3 12h-1l-3 -13q-3 -12 -12 -46.5t-23 -77.5l-116 -368h-72l-237 700h85l158 -473q8 -26 15.5 -52t11.5 -38l3 -12h1l3 12q3 12 10.5 38t16.5 52
l124 379h72l124 -379q9 -26 16.5 -52t10.5 -38l3 -12h1l3 12q4 12 11.5 38t15.5 52z" />
    <glyph glyph-name="Ycircumflex" unicode="&#x176;" horiz-adv-x="656" 
d="M159 785l167 141l166 -141l-41 -43l-125 105l-125 -105zM546 700h94l-272 -356v-344h-81v344l-271 356h93l176 -229q6 -8 18 -23.5t19 -23.5l6 -8h1q1 0 42 55z" />
    <glyph glyph-name="ycircumflex" unicode="&#x177;" horiz-adv-x="656" 
d="M159 785l167 141l166 -141l-41 -43l-125 105l-125 -105zM546 700h94l-272 -356v-344h-81v344l-271 356h93l176 -229q6 -8 18 -23.5t19 -23.5l6 -8h1q1 0 42 55z" />
    <glyph glyph-name="Ydieresis" unicode="&#x178;" horiz-adv-x="656" 
d="M207 765q-21 0 -35 14t-14 35q0 20 14 34t35 14q20 0 34.5 -14t14.5 -34q0 -21 -14.5 -35t-34.5 -14zM443 765q-20 0 -34.5 14t-14.5 35q0 20 14.5 34t34.5 14q21 0 35 -14t14 -34q0 -21 -14 -35t-35 -14zM546 700h94l-272 -356v-344h-81v344l-271 356h93l176 -229
q6 -8 18 -23.5t19 -23.5l6 -8h1q1 0 42 55z" />
    <glyph glyph-name="Zacute" unicode="&#x179;" horiz-adv-x="690" 
d="M466 900l30 -58l-219 -104l-26 46zM630 700v-76l-410 -491q-13 -15 -26 -29.5t-20 -21.5l-6 -7l1 -1h5q4 1 12.5 1.5t19 0.5t25 0.5t28.5 0.5h371v-77h-570v76l416 494q9 10 22 23.5t22 22.5l9 8l-1 1h-4q-5 0 -13.5 -0.5t-19 -1t-25 -0.5h-29.5h-367v77h560z" />
    <glyph glyph-name="zacute" unicode="&#x17a;" horiz-adv-x="690" 
d="M466 900l30 -58l-219 -104l-26 46zM630 700v-76l-410 -491q-13 -15 -26 -29.5t-20 -21.5l-6 -7l1 -1h5q4 1 12.5 1.5t19 0.5t25 0.5t28.5 0.5h371v-77h-570v76l416 494q9 10 22 23.5t22 22.5l9 8l-1 1h-4q-5 0 -13.5 -0.5t-19 -1t-25 -0.5h-29.5h-367v77h560z" />
    <glyph glyph-name="Zdotaccent" unicode="&#x17b;" horiz-adv-x="690" 
d="M349 765q-20 0 -34.5 14t-14.5 34t14.5 34.5t34.5 14.5t34 -14.5t14 -34.5t-14 -34t-34 -14zM630 700v-76l-410 -491q-13 -15 -26 -29.5t-20 -21.5l-6 -7l1 -1h5q4 1 12.5 1.5t19 0.5t25 0.5t28.5 0.5h371v-77h-570v76l416 494q9 10 22 23.5t22 22.5l9 8l-1 1h-4
q-5 0 -13.5 -0.5t-19 -1t-25 -0.5h-29.5h-367v77h560z" />
    <glyph glyph-name="zdotaccent" unicode="&#x17c;" horiz-adv-x="690" 
d="M349 765q-20 0 -34.5 14t-14.5 34t14.5 34.5t34.5 14.5t34 -14.5t14 -34.5t-14 -34t-34 -14zM630 700v-76l-410 -491q-13 -15 -26 -29.5t-20 -21.5l-6 -7l1 -1h5q4 1 12.5 1.5t19 0.5t25 0.5t28.5 0.5h371v-77h-570v76l416 494q9 10 22 23.5t22 22.5l9 8l-1 1h-4
q-5 0 -13.5 -0.5t-19 -1t-25 -0.5h-29.5h-367v77h560z" />
    <glyph glyph-name="Zcaron" unicode="&#x17d;" horiz-adv-x="690" 
d="M182 869l167 -141l166 141l-41 43l-125 -105l-125 105zM630 700v-76l-410 -491q-13 -15 -26 -29.5t-20 -21.5l-6 -7l1 -1h5q4 1 12.5 1.5t19 0.5t25 0.5t28.5 0.5h371v-77h-570v76l416 494q9 10 22 23.5t22 22.5l9 8l-1 1h-4q-5 0 -13.5 -0.5t-19 -1t-25 -0.5h-29.5h-367
v77h560z" />
    <glyph glyph-name="zcaron" unicode="&#x17e;" horiz-adv-x="690" 
d="M182 869l167 -141l166 141l-41 43l-125 -105l-125 105zM630 700v-76l-410 -491q-13 -15 -26 -29.5t-20 -21.5l-6 -7l1 -1h5q4 1 12.5 1.5t19 0.5t25 0.5t28.5 0.5h371v-77h-570v76l416 494q9 10 22 23.5t22 22.5l9 8l-1 1h-4q-5 0 -13.5 -0.5t-19 -1t-25 -0.5h-29.5h-367
v77h560z" />
    <glyph glyph-name="Scommaaccent" unicode="&#x218;" horiz-adv-x="596" 
d="M547 527l-78 -21q-11 63 -59.5 99.5t-115.5 36.5q-70 0 -113.5 -31t-43.5 -83q0 -21 10.5 -38.5t24.5 -29t40 -22.5t46 -17.5t52 -16.5q11 -3 17 -5q38 -11 62.5 -20t60 -27t56.5 -38t36.5 -52.5t15.5 -71.5q0 -89 -71 -146.5t-185 -57.5q-109 0 -179.5 57t-87.5 149
l79 21q8 -65 58.5 -109t132.5 -44q76 0 121.5 36t45.5 92q0 21 -6 38.5t-21 31.5t-27.5 23.5t-38 19.5t-39.5 14.5t-45 13.5t-43 13q-34 11 -52.5 17.5t-50.5 22.5t-49.5 33t-31.5 45.5t-14 63.5q0 82 69 136t174 54q95 0 164 -51.5t86 -135.5zM287 -138l10 4l-10 1
q-16 0 -29 13t-13 33q0 21 14 34.5t35 13.5t35 -16.5t14 -41.5q0 -41 -22 -82.5t-54 -71.5h-35q22 21 38.5 53t16.5 60z" />
    <glyph glyph-name="scommaaccent" unicode="&#x219;" horiz-adv-x="596" 
d="M547 527l-78 -21q-11 63 -59.5 99.5t-115.5 36.5q-70 0 -113.5 -31t-43.5 -83q0 -21 10.5 -38.5t24.5 -29t40 -22.5t46 -17.5t52 -16.5q11 -3 17 -5q38 -11 62.5 -20t60 -27t56.5 -38t36.5 -52.5t15.5 -71.5q0 -89 -71 -146.5t-185 -57.5q-109 0 -179.5 57t-87.5 149
l79 21q8 -65 58.5 -109t132.5 -44q76 0 121.5 36t45.5 92q0 21 -6 38.5t-21 31.5t-27.5 23.5t-38 19.5t-39.5 14.5t-45 13.5t-43 13q-34 11 -52.5 17.5t-50.5 22.5t-49.5 33t-31.5 45.5t-14 63.5q0 82 69 136t174 54q95 0 164 -51.5t86 -135.5zM287 -138l10 4l-10 1
q-16 0 -29 13t-13 33q0 21 14 34.5t35 13.5t35 -16.5t14 -41.5q0 -41 -22 -82.5t-54 -71.5h-35q22 21 38.5 53t16.5 60z" />
    <glyph glyph-name="uni021A" unicode="&#x21a;" horiz-adv-x="594" 
d="M22 700h550v-77h-235v-623h-81v623h-234v77zM305 -134l-10 1q-16 0 -29 13t-13 33q0 21 14 34.5t35 13.5t35 -16.5t14 -41.5q0 -41 -22 -82.5t-54 -71.5h-35q22 21 38.5 53t16.5 60z" />
    <glyph glyph-name="uni021B" unicode="&#x21b;" horiz-adv-x="594" 
d="M22 700h550v-77h-235v-623h-81v623h-234v77zM287 -134l-10 1q-16 0 -29 13t-13 33q0 21 14 34.5t35 13.5t35 -16.5t14 -41.5q0 -41 -22 -82.5t-54 -71.5h-35q22 21 38.5 53t16.5 60z" />
    <glyph glyph-name="dotlessj" unicode="&#x237;" horiz-adv-x="655" 
d="M499 700h82v-410q0 -144 -77 -224.5t-216 -80.5q-97 0 -171.5 50.5t-102.5 130.5l81 22q21 -59 73 -92.5t120 -33.5q102 0 156.5 59t54.5 164v415z" />
    <glyph glyph-name="circumflex" unicode="&#x2c6;" horiz-adv-x="379" 
d="M17 785l167 141l166 -141l-41 -43l-125 105l-125 -105z" />
    <glyph glyph-name="caron" unicode="&#x2c7;" horiz-adv-x="379" 
d="M17 869l167 -141l166 141l-41 43l-125 -105l-125 105z" />
    <glyph glyph-name="breve" unicode="&#x2d8;" horiz-adv-x="333" 
d="M10 867h60q7 -29 31.5 -49.5t57.5 -20.5q32 0 57 20.5t32 49.5h60q-11 -53 -52.5 -87.5t-96.5 -34.5q-56 0 -97 34t-52 88z" />
    <glyph glyph-name="dotaccent" unicode="&#x2d9;" horiz-adv-x="159" 
d="M72 765q-20 0 -34.5 14t-14.5 34t14.5 34.5t34.5 14.5t34 -14.5t14 -34.5t-14 -34t-34 -14z" />
    <glyph glyph-name="ring" unicode="&#x2da;" horiz-adv-x="268" 
d="M128 668q-45 0 -77 32t-32 77q0 46 32 77.5t77 31.5t77.5 -32t32.5 -77t-32.5 -77t-77.5 -32zM128 720q24 0 41.5 17.5t17.5 40.5q0 24 -17.5 41t-41.5 17t-41 -16.5t-17 -41.5q0 -23 17 -40.5t41 -17.5z" />
    <glyph glyph-name="ogonek" unicode="&#x2db;" horiz-adv-x="600" 
d="M363 -118l48 -26q-48 -97 -150 -97q-65 0 -106.5 37.5t-41.5 98.5q0 64 45.5 104t98.5 40l53 -39q-55 0 -96 -25.5t-41 -79.5q0 -35 24 -59t64 -24q71 0 102 70z" />
    <glyph glyph-name="tilde" unicode="&#x2dc;" horiz-adv-x="422" 
d="M319 861h66q1 -45 -30 -74.5t-80 -29.5q-31 0 -72.5 29t-61.5 29q-22 0 -36 -13.5t-14 -33.5h-66q0 45 31 74.5t79 29.5q35 0 76 -29t59 -29q21 0 35 13.5t14 33.5z" />
    <glyph glyph-name="hungarumlaut" unicode="&#x2dd;" horiz-adv-x="507" 
d="M240 900l30 -58l-219 -104l-26 46zM440 900l30 -58l-219 -104l-26 46z" />
    <glyph glyph-name="commaaccentcomb" unicode="&#x326;" horiz-adv-x="0" 
d="M101 -139l10 5l-10 1q-16 0 -29.5 12.5t-13.5 33.5t14.5 34t35.5 13t34.5 -16t13.5 -41q0 -41 -22 -82.5t-53 -71.5h-35q22 21 38.5 52.5t16.5 59.5z" />
    <glyph glyph-name="Wgrave" unicode="&#x1e80;" horiz-adv-x="980" 
d="M542 738l-219 104l31 58l214 -116zM869 700h85l-237 -700h-72l-116 368q-14 43 -23.5 78t-12.5 47l-3 12h-1l-3 -13q-3 -12 -12 -46.5t-23 -77.5l-116 -368h-72l-237 700h85l158 -473q8 -26 15.5 -52t11.5 -38l3 -12h1l3 12q3 12 10.5 38t16.5 52l124 379h72l124 -379
q9 -26 16.5 -52t10.5 -38l3 -12h1l3 12q4 12 11.5 38t15.5 52z" />
    <glyph glyph-name="wgrave" unicode="&#x1e81;" horiz-adv-x="980" 
d="M545 738l-219 104l31 58l214 -116zM869 700h85l-237 -700h-72l-116 368q-14 43 -23.5 78t-12.5 47l-3 12h-1l-3 -13q-3 -12 -12 -46.5t-23 -77.5l-116 -368h-72l-237 700h85l158 -473q8 -26 15.5 -52t11.5 -38l3 -12h1l3 12q3 12 10.5 38t16.5 52l124 379h72l124 -379
q9 -26 16.5 -52t10.5 -38l3 -12h1l3 12q4 12 11.5 38t15.5 52z" />
    <glyph glyph-name="Wacute" unicode="&#x1e82;" horiz-adv-x="980" 
d="M604 900l30 -58l-219 -104l-26 46zM869 700h85l-237 -700h-72l-116 368q-14 43 -23.5 78t-12.5 47l-3 12h-1l-3 -13q-3 -12 -12 -46.5t-23 -77.5l-116 -368h-72l-237 700h85l158 -473q8 -26 15.5 -52t11.5 -38l3 -12h1l3 12q3 12 10.5 38t16.5 52l124 379h72l124 -379
q9 -26 16.5 -52t10.5 -38l3 -12h1l3 12q4 12 11.5 38t15.5 52z" />
    <glyph glyph-name="wacute" unicode="&#x1e83;" horiz-adv-x="980" 
d="M607 900l30 -58l-219 -104l-26 46zM869 700h85l-237 -700h-72l-116 368q-14 43 -23.5 78t-12.5 47l-3 12h-1l-3 -13q-3 -12 -12 -46.5t-23 -77.5l-116 -368h-72l-237 700h85l158 -473q8 -26 15.5 -52t11.5 -38l3 -12h1l3 12q3 12 10.5 38t16.5 52l124 379h72l124 -379
q9 -26 16.5 -52t10.5 -38l3 -12h1l3 12q4 12 11.5 38t15.5 52z" />
    <glyph glyph-name="Wdieresis" unicode="&#x1e84;" horiz-adv-x="980" 
d="M366 765q-21 0 -35 14t-14 35q0 20 14 34t35 14q20 0 34.5 -14t14.5 -34q0 -21 -14.5 -35t-34.5 -14zM602 765q-20 0 -34.5 14t-14.5 35q0 20 14.5 34t34.5 14q21 0 35 -14t14 -34q0 -21 -14 -35t-35 -14zM869 700h85l-237 -700h-72l-116 368q-14 43 -23.5 78t-12.5 47
l-3 12h-1l-3 -13q-3 -12 -12 -46.5t-23 -77.5l-116 -368h-72l-237 700h85l158 -473q8 -26 15.5 -52t11.5 -38l3 -12h1l3 12q3 12 10.5 38t16.5 52l124 379h72l124 -379q9 -26 16.5 -52t10.5 -38l3 -12h1l3 12q4 12 11.5 38t15.5 52z" />
    <glyph glyph-name="wdieresis" unicode="&#x1e85;" horiz-adv-x="980" 
d="M369 765q-21 0 -35 14t-14 35q0 20 14 34t35 14q20 0 34.5 -14t14.5 -34q0 -21 -14.5 -35t-34.5 -14zM605 765q-20 0 -34.5 14t-14.5 35q0 20 14.5 34t34.5 14q21 0 35 -14t14 -34q0 -21 -14 -35t-35 -14zM869 700h85l-237 -700h-72l-116 368q-14 43 -23.5 78t-12.5 47
l-3 12h-1l-3 -13q-3 -12 -12 -46.5t-23 -77.5l-116 -368h-72l-237 700h85l158 -473q8 -26 15.5 -52t11.5 -38l3 -12h1l3 12q3 12 10.5 38t16.5 52l124 379h72l124 -379q9 -26 16.5 -52t10.5 -38l3 -12h1l3 12q4 12 11.5 38t15.5 52z" />
    <glyph glyph-name="Germandbls" unicode="&#x1e9e;" horiz-adv-x="770" 
d="M93 700h565l-119 -215q-7 -14 -19 -35l-20 -35l-8 -14l1 -1h7q100 1 163 -56.5t63 -146.5q0 -91 -64.5 -151t-167.5 -60q-78 0 -142.5 37t-96.5 100l78 23q52 -89 158 -89q69 0 111 40t42 101q0 57 -40.5 98t-113.5 41h-75v63l80 149q6 12 17 31t18 32l7 12l-1 1h-4
q-4 0 -10.5 -0.5t-15 -1t-20.5 -0.5h-23h-288v-623h-82v700z" />
    <glyph glyph-name="Ygrave" unicode="&#x1ef2;" horiz-adv-x="656" 
d="M383 738l-219 104l31 58l214 -116zM546 700h94l-272 -356v-344h-81v344l-271 356h93l176 -229q6 -8 18 -23.5t19 -23.5l6 -8h1q1 0 42 55z" />
    <glyph glyph-name="ygrave" unicode="&#x1ef3;" horiz-adv-x="656" 
d="M383 738l-219 104l31 58l214 -116zM546 700h94l-272 -356v-344h-81v344l-271 356h93l176 -229q6 -8 18 -23.5t19 -23.5l6 -8h1q1 0 42 55z" />
    <glyph glyph-name="uni2007" unicode="&#x2007;" 
 />
    <glyph glyph-name="uni2009" unicode="&#x2009;" horiz-adv-x="120" 
 />
    <glyph glyph-name="uni200A" unicode="&#x200a;" horiz-adv-x="40" 
 />
    <glyph glyph-name="endash" unicode="&#x2013;" horiz-adv-x="600" 
d="M93 393h414v-77h-414v77z" />
    <glyph glyph-name="emdash" unicode="&#x2014;" horiz-adv-x="1020" 
d="M93 393h834v-77h-834v77z" />
    <glyph glyph-name="quoteleft" unicode="&#x2018;" horiz-adv-x="300" 
d="M151 596l-10 -4l10 -1q16 0 30 -13t14 -34t-15.5 -35t-36.5 -14t-35.5 16.5t-14.5 42.5q0 43 22.5 85.5t55.5 73.5h36q-23 -21 -39.5 -54t-16.5 -63z" />
    <glyph glyph-name="quoteright" unicode="&#x2019;" horiz-adv-x="300" 
d="M150 611l10 5l-10 1q-17 0 -30.5 13t-13.5 34t15 35t36 14t35.5 -16.5t14.5 -42.5q0 -43 -22.5 -85.5t-55.5 -73.5h-36q23 21 40 54t17 62z" />
    <glyph glyph-name="quotesinglbase" unicode="&#x201a;" horiz-adv-x="300" 
d="M150 -16l10 5l-10 1q-17 0 -30.5 13t-13.5 34t15 35t36 14t35.5 -16.5t14.5 -42.5q0 -43 -22.5 -85.5t-55.5 -73.5h-36q23 21 40 54t17 62z" />
    <glyph glyph-name="quotedblleft" unicode="&#x201c;" horiz-adv-x="484" 
d="M151 596l-10 -4l10 -1q16 0 30 -13t14 -34t-15.5 -35t-36.5 -14t-35.5 16.5t-14.5 42.5q0 43 22.5 85.5t55.5 73.5h36q-23 -21 -39.5 -54t-16.5 -63zM334 596l-10 -4l10 -1q16 0 30 -13t14 -34t-15 -35t-36 -14t-35.5 16.5t-14.5 42.5q0 43 22.5 85.5t55.5 73.5h36
q-23 -22 -40 -55t-17 -62z" />
    <glyph glyph-name="quotedblright" unicode="&#x201d;" horiz-adv-x="484" 
d="M150 611l10 5l-10 1q-17 0 -30.5 13t-13.5 34t15 35t36 14t35.5 -16.5t14.5 -42.5q0 -43 -22.5 -85.5t-55.5 -73.5h-36q23 21 40 54t17 62zM333 611l10 5l-10 1q-16 0 -30 13t-14 34t15.5 35t36.5 14t35.5 -16.5t14.5 -42.5q0 -43 -22.5 -85.5t-55.5 -73.5h-36
q23 21 39.5 54t16.5 62z" />
    <glyph glyph-name="quotedblbase" unicode="&#x201e;" horiz-adv-x="470" 
d="M150 -15l10 4l-10 1q-17 1 -30.5 13.5t-13.5 33.5t15 35.5t36 14.5t35.5 -16.5t14.5 -43.5q0 -43 -22.5 -85.5t-55.5 -73.5h-36q23 22 40 55t17 62zM320 -15l10 4l-10 1q-17 1 -30.5 13.5t-13.5 33.5t15 35.5t36 14.5t35.5 -16.5t14.5 -43.5q0 -43 -22.5 -85.5
t-55.5 -73.5h-36q23 22 40 55t17 62z" />
    <glyph glyph-name="dagger" unicode="&#x2020;" horiz-adv-x="500" 
d="M477 516v-71h-191v-140q0 -66 -2.5 -141.5t-4.5 -119.5t-3 -44h-53q-1 0 -3.5 44t-5 119.5t-2.5 141.5v140h-190v71h190v184h74v-184h191z" />
    <glyph glyph-name="daggerdbl" unicode="&#x2021;" horiz-adv-x="500" 
d="M286 445v-140v-5h191v-71h-192q-4 -229 -9 -229h-53q-1 0 -2.5 30.5t-4 87t-3.5 111.5h-191v71h190v5v140h-190v71h190v184h74v-184h191v-71h-191z" />
    <glyph glyph-name="bullet" unicode="&#x2022;" horiz-adv-x="378" 
d="M189 259q-40 0 -68 28t-28 68t28 67.5t68 27.5t67.5 -27.5t27.5 -67.5t-27.5 -68t-67.5 -28z" />
    <glyph glyph-name="ellipsis" unicode="&#x2026;" horiz-adv-x="732" 
d="M101 -14q-17 0 -29 12t-12 29t12 28.5t29 11.5t29 -11.5t12 -28.5t-12 -29t-29 -12zM361 -14q-17 0 -29 12t-12 29t12 28.5t29 11.5t29 -11.5t12 -28.5t-12 -29t-29 -12zM631 -14q-17 0 -29 12t-12 29t12 28.5t29 11.5t29 -11.5t12 -28.5t-12 -29t-29 -12z" />
    <glyph glyph-name="perthousand" unicode="&#x2030;" horiz-adv-x="1374" 
d="M224 301q-81 0 -130.5 58t-49.5 145t49.5 145.5t130.5 58.5t130.5 -58.5t49.5 -145.5t-49.5 -145t-130.5 -58zM207 0l478 700h59l-477 -700h-60zM224 360q54 0 87 42t33 102q0 61 -33 103t-87 42t-87 -42t-33 -103q0 -60 33 -102t87 -42zM728 -8q-81 0 -130.5 58
t-49.5 145t49.5 145.5t130.5 58.5t130.5 -58.5t49.5 -145.5t-49.5 -145t-130.5 -58zM1150 -8q-81 0 -130.5 58t-49.5 145t49.5 145.5t130.5 58.5t130.5 -58.5t49.5 -145.5t-49.5 -145t-130.5 -58zM728 51q54 0 87 42t33 102q0 61 -33 103t-87 42t-87 -42t-33 -103
q0 -60 33 -102t87 -42zM1150 51q54 0 87 42t33 102q0 61 -33 103t-87 42t-87 -42t-33 -103q0 -60 33 -102t87 -42z" />
    <glyph glyph-name="guilsinglleft" unicode="&#x2039;" horiz-adv-x="469" 
d="M329 586l-236 -234l235 -234l48 46l-192 188l191 188z" />
    <glyph glyph-name="guilsinglright" unicode="&#x203a;" horiz-adv-x="469" 
d="M140 586l236 -234l-235 -234l-48 46l192 188l-191 188z" />
    <glyph glyph-name="fraction" unicode="&#x2044;" horiz-adv-x="116" 
d="M-211 0l478 700h59l-477 -700h-60z" />
    <glyph glyph-name="Euro" unicode="&#x20ac;" horiz-adv-x="801" 
d="M694 212l81 -21q-43 -93 -130.5 -148t-195.5 -55q-131 0 -229 78t-124 204h-52v58h45q-1 7 -1 22q0 14 1 21h-45v57h52q25 126 123.5 205t229.5 79q101 0 185 -49t131 -134l-84 -21q-35 59 -96.5 91.5t-135.5 32.5q-98 0 -172.5 -55.5t-98.5 -148.5h282v-57h-291
q-1 -7 -1 -21q0 -15 1 -22h291v-58h-282q25 -91 99.5 -146t171.5 -55q80 0 145.5 38.5t99.5 104.5z" />
    <glyph glyph-name="uni20B9" unicode="&#x20b9;" horiz-adv-x="580" 
d="M536 700v-65h-128q31 -26 47 -60h81v-64h-60q2 -20 2 -31q0 -95 -66 -156t-170 -63l215 -261h-99l-215 263v65h94q68 0 112.5 44t44.5 108q0 16 -3 31h-298v64h269q-45 60 -125 60h-144v65h443z" />
    <glyph glyph-name="afii61352" unicode="&#x2116;" horiz-adv-x="1119" 
d="M754 540q0 75 50 124.5t123 49.5q72 0 123 -49.5t51 -124.5q0 -74 -51 -123.5t-123 -49.5q-73 0 -123 49.5t-50 123.5zM585 700h82v-700h-77l-311 419q-25 35 -52 73t-40 56l-13 18h-1l1 -24q0 -25 0.5 -76t0.5 -99v-367h-82v700h77l311 -418q23 -30 49.5 -67t41.5 -57
l14 -20h1l-1 26q0 26 -0.5 76t-0.5 92v368zM809 540q0 -52 34 -86t84 -34q51 0 84.5 34t33.5 86t-33.5 86.5t-84.5 34.5q-50 0 -84 -34.5t-34 -86.5zM765 309h326v-54h-326v54z" />
    <glyph glyph-name="trademark" unicode="&#x2122;" horiz-adv-x="786" 
d="M22 647v53h286v-53h-116v-272h-54v272h-116zM645 700h51v-325h-54v132q0 23 1.5 51t2.5 43l1 15h-1l-4 -6q-4 -7 -13 -22.5t-17 -28.5l-66 -109h-28l-66 109q-9 14 -17.5 29t-12.5 22l-4 6h-1l1 -15q1 -15 2 -43t1 -51v-132h-53v325h51l83 -138q9 -14 16 -28l10 -20l3 -7
h1l3 6q3 6 10.5 20t16.5 29z" />
    <glyph glyph-name="oneeighth" unicode="&#x215b;" horiz-adv-x="708" 
d="M144 700h40v-391h-58v233q0 8 0.5 19.5t1.5 22.5t2 21t2 16v6h-1q-1 0 -5 -5.5t-12 -15t-16 -16.5l-47 -47l-37 34zM58 0l478 700h59l-477 -700h-60zM608 208v-1q31 -6 58.5 -32t27.5 -66q0 -51 -40.5 -83.5t-105.5 -33.5q-64 1 -104.5 33.5t-40.5 83.5q0 40 27.5 66
t58.5 32v1q-22 4 -46 28t-24 61q0 44 36.5 73t92.5 29q57 0 93.5 -29t36.5 -73q0 -36 -24.5 -60.5t-45.5 -28.5zM468 296q0 -28 22.5 -45.5t57.5 -16.5q36 0 58.5 17t22.5 45q0 27 -22.5 43.5t-58.5 16.5q-35 0 -57.5 -17t-22.5 -43zM455 110q0 -32 26 -52t67 -21
q42 1 68 21t26 52q0 30 -26.5 49.5t-67.5 19.5t-67 -19.5t-26 -49.5z" />
    <glyph glyph-name="threeeighths" unicode="&#x215c;" horiz-adv-x="782" 
d="M78 582l-51 14q10 51 48 81.5t94 30.5q66 0 101 -31t35 -76q0 -37 -26.5 -62t-60.5 -27v-1q38 -2 64.5 -25.5t26.5 -62.5q0 -54 -39.5 -88t-99.5 -34q-58 0 -100.5 34t-49.5 87l52 13q3 -38 29.5 -60.5t68.5 -22.5q40 0 61.5 20.5t21.5 51.5q0 29 -24 47t-62 18h-39v44
h39q36 0 59 18.5t23 46.5q0 23 -20 41.5t-60 18.5q-74 0 -91 -76zM132 0l478 700h59l-477 -700h-60zM682 208v-1q31 -6 58.5 -32t27.5 -66q0 -51 -40.5 -83.5t-105.5 -33.5q-64 1 -104.5 33.5t-40.5 83.5q0 40 27.5 66t58.5 32v1q-22 4 -46 28t-24 61q0 44 36.5 73t92.5 29
q57 0 93.5 -29t36.5 -73q0 -36 -24.5 -60.5t-45.5 -28.5zM542 296q0 -28 22.5 -45.5t57.5 -16.5q36 0 58.5 17t22.5 45q0 27 -22.5 43.5t-58.5 16.5q-35 0 -57.5 -17t-22.5 -43zM529 110q0 -32 26 -52t67 -21q42 1 68 21t26 52q0 30 -26.5 49.5t-67.5 19.5t-67 -19.5
t-26 -49.5z" />
    <glyph glyph-name="fiveeighths" unicode="&#x215d;" horiz-adv-x="766" 
d="M83 535l1 -1q28 35 80 35q63 0 102 -37t39 -96q0 -58 -40 -96.5t-101 -38.5q-60 0 -98 33t-46 84l53 14q5 -37 27.5 -58.5t61.5 -21.5q40 0 64.5 23.5t24.5 61.5t-24.5 62t-64.5 24q-30 0 -51.5 -13t-29.5 -31l-48 13l34 208h215v-52h-171l-10 -51q-2 -11 -5 -21.5
t-5 -17t-4 -12t-3 -8.5zM594 700h59l-477 -700h-60zM666 208v-1q31 -6 58.5 -32t27.5 -66q0 -51 -40.5 -83.5t-105.5 -33.5q-64 1 -104.5 33.5t-40.5 83.5q0 40 27.5 66t58.5 32v1q-22 4 -46 28t-24 61q0 44 36.5 73t92.5 29q57 0 93.5 -29t36.5 -73q0 -36 -24.5 -60.5
t-45.5 -28.5zM526 296q0 -28 22.5 -45.5t57.5 -16.5q36 0 58.5 17t22.5 45q0 27 -22.5 43.5t-58.5 16.5q-35 0 -57.5 -17t-22.5 -43zM606 37q42 1 68 21t26 52q0 30 -26.5 49.5t-67.5 19.5t-67 -19.5t-26 -49.5q0 -32 26 -52t67 -21z" />
    <glyph glyph-name="seveneighths" unicode="&#x215e;" horiz-adv-x="666" 
d="M10 700h282v-35l-200 -356h-58l166 294q7 13 15.5 24t12.5 17l5 5l-1 1h-4q-3 0 -9.5 -0.5t-13.5 -1t-16.5 -0.5h-18.5h-160v52zM16 0l478 700h59l-477 -700h-60zM566 208v-1q31 -6 58.5 -32t27.5 -66q0 -51 -40.5 -83.5t-105.5 -33.5q-64 1 -104.5 33.5t-40.5 83.5
q0 40 27.5 66t58.5 32v1q-22 4 -46 28t-24 61q0 44 36.5 73t92.5 29q57 0 93.5 -29t36.5 -73q0 -36 -24.5 -60.5t-45.5 -28.5zM426 296q0 -28 22.5 -45.5t57.5 -16.5q36 0 58.5 17t22.5 45q0 27 -22.5 43.5t-58.5 16.5q-35 0 -57.5 -17t-22.5 -43zM413 110q0 -32 26 -52
t67 -21q42 1 68 21t26 52q0 30 -26.5 49.5t-67.5 19.5t-67 -19.5t-26 -49.5z" />
    <glyph glyph-name="minus" unicode="&#x2212;" 
d="M118 390h463v-69h-463v69z" />
    <glyph glyph-name="notequal" unicode="&#x2260;" 
d="M581 411h-168l-60 -118h228v-69h-263l-62 -121h-71l62 121h-129v69h164l60 118h-224v69h260l66 130h70l-66 -130h133v-69z" />
    <glyph glyph-name="lessequal" unicode="&#x2264;" 
d="M546 151l-322 216l352 244h-107l-357 -244l326 -216h108zM575 59h-463v-69h463v69z" />
    <glyph glyph-name="greaterequal" unicode="&#x2265;" 
d="M152 151l322 216l-352 244h107l357 -244l-326 -216h-108zM123 59h463v-69h-463v69z" />
    <glyph glyph-name="lozenge" unicode="&#x25ca;" horiz-adv-x="765" 
d="M382 -14l-364 364l364 364l364 -364zM382 619l-269 -269l269 -269l270 269z" />
    <glyph glyph-name="Cacute.loclPLK" horiz-adv-x="761" 
d="M457 937l62 -35l-108 -168l-53 31zM725 530l-83 -21q-36 58 -99 91.5t-136 33.5q-121 0 -200 -79t-79 -205q0 -125 80 -204t199 -79q80 0 146 39.5t101 105.5l81 -22q-44 -94 -131.5 -149t-196.5 -55q-152 0 -257.5 103.5t-105.5 260.5t105.5 260.5t257.5 103.5
q102 0 186 -49.5t132 -134.5z" />
    <glyph glyph-name="I.ss03" horiz-adv-x="437" 
d="M259 73h134v-73h-349v73h133v554h-129v73h341v-73h-130v-554z" />
    <glyph glyph-name="IJ.ss03" horiz-adv-x="1080" 
d="M259 627v-554h134v-73h-349v73h133v554h-129v73h341v-73h-130zM924 700h82v-410q0 -144 -77 -224.5t-216 -80.5q-97 0 -171.5 50.5t-102.5 130.5l81 22q21 -59 73 -92.5t120 -33.5q102 0 156.5 59t54.5 164v415z" />
    <glyph glyph-name="IJ.ss03.ss04" horiz-adv-x="1081" 
d="M259 627v-554h134v-73h-349v73h133v554h-129v73h341v-73h-130zM606 700h401v-410q0 -144 -77 -224.5t-216 -80.5q-97 0 -171.5 50.5t-102.5 130.5l81 22q21 -59 73 -92.5t120 -33.5q102 0 156.5 59t54.5 164v338h-319v77z" />
    <glyph glyph-name="IJ.ss04" horiz-adv-x="912" 
d="M93 0v700h82v-700h-82zM437 700h401v-410q0 -144 -77 -224.5t-216 -80.5q-97 0 -171.5 50.5t-102.5 130.5l81 22q21 -59 73 -92.5t120 -33.5q102 0 156.5 59t54.5 164v338h-319v77z" />
    <glyph glyph-name="Iacute.ss03" horiz-adv-x="437" 
d="M366 842l-219 -104l-26 46l215 116zM259 73h134v-73h-349v73h133v554h-129v73h341v-73h-130v-554z" />
    <glyph glyph-name="Icircumflex.ss03" horiz-adv-x="437" 
d="M217 847l-125 -105l-42 43l167 141l166 -141l-41 -43zM259 73h134v-73h-349v73h133v554h-129v73h341v-73h-130v-554z" />
    <glyph glyph-name="Idieresis.ss03" horiz-adv-x="437" 
d="M98 765q-21 0 -35 14t-14 35q0 20 14 34t35 14q20 0 34.5 -14t14.5 -34q0 -21 -14.5 -35t-34.5 -14zM334 765q-20 0 -34.5 14t-14.5 35q0 20 14.5 34t34.5 14q21 0 35 -14t14 -34q0 -21 -14 -35t-35 -14zM259 73h134v-73h-349v73h133v554h-129v73h341v-73h-130v-554z" />
    <glyph glyph-name="Idotaccent.ss03" horiz-adv-x="437" 
d="M219 765q-20 0 -34.5 14t-14.5 34t14.5 34.5t34.5 14.5t34 -14.5t14 -34.5t-14 -34t-34 -14zM259 73h134v-73h-349v73h133v554h-129v73h341v-73h-130v-554z" />
    <glyph glyph-name="Igrave.ss03" horiz-adv-x="437" 
d="M300 784l-26 -46l-219 104l31 58zM259 73h134v-73h-349v73h133v554h-129v73h341v-73h-130v-554z" />
    <glyph glyph-name="Imacron.ss03" horiz-adv-x="437" 
d="M389 843v-64h-341v64h341zM259 73h134v-73h-349v73h133v554h-129v73h341v-73h-130v-554z" />
    <glyph glyph-name="Iogonek.ss03" horiz-adv-x="437" 
d="M393 0h-184q-55 0 -96 -25.5t-41 -79.5q0 -35 23.5 -59t63.5 -24q72 0 103 70l47 -26q-46 -97 -149 -97q-65 0 -106.5 37.5t-41.5 98.5q0 65 47 105h-15v73h133v554h-129v73h341v-73h-130v-554h134v-73z" />
    <glyph glyph-name="J.ss04" horiz-adv-x="655" 
d="M180 700h401v-410q0 -144 -77 -224.5t-216 -80.5q-97 0 -171.5 50.5t-102.5 130.5l81 22q21 -59 73 -92.5t120 -33.5q102 0 156.5 59t54.5 164v338h-319v77z" />
    <glyph glyph-name="Jcircumflex.ss04" horiz-adv-x="655" 
d="M376 847l-125 -105l-42 43l167 141l166 -141l-42 -43zM180 700h401v-410q0 -144 -77 -224.5t-216 -80.5q-97 0 -171.5 50.5t-102.5 130.5l81 22q21 -59 73 -92.5t120 -33.5q102 0 156.5 59t54.5 164v338h-319v77z" />
    <glyph glyph-name="N.ss02" horiz-adv-x="760" 
d="M585 700h82v-700h-82v267l-282 222q-30 25 -62.5 52.5t-49.5 42.5l-17 14h-1v-4q0 -5 0.5 -13.5t0.5 -19.5v-25.5t0.5 -30t0.5 -34v-35.5v-436h-82v700h78l236 -189q174 -147 179 -147h1v4q0 4 -0.5 11t-0.5 17v22.5t-0.5 27t-0.5 32v34.5v188z" />
    <glyph glyph-name="Nacute.loclPLK" horiz-adv-x="760" 
d="M437 937l62 -35l-108 -168l-53 31zM585 700h82v-700h-77l-311 419q-25 35 -52 73t-40 56l-13 18h-1l1 -24q0 -25 0.5 -76t0.5 -99v-367h-82v700h77l311 -418q23 -30 49.5 -67t41.5 -57l14 -20h1l-1 26q0 26 -0.5 76t-0.5 92v368z" />
    <glyph glyph-name="Nacute.loclPLK.ss02" horiz-adv-x="760" 
d="M442 937l62 -35l-108 -168l-53 31zM585 700h82v-700h-82v267l-282 222q-30 25 -62.5 52.5t-49.5 42.5l-17 14h-1v-4q0 -5 0.5 -13.5t0.5 -19.5v-25.5t0.5 -30t0.5 -34v-35.5v-436h-82v700h78l236 -189q174 -147 179 -147h1v4q0 4 -0.5 11t-0.5 17v22.5t-0.5 27t-0.5 32
v34.5v188z" />
    <glyph glyph-name="Nacute.ss02" horiz-adv-x="760" 
d="M504 900l30 -58l-219 -104l-26 46zM585 700h82v-700h-82v267l-282 222q-30 25 -62.5 52.5t-49.5 42.5l-17 14h-1v-4q0 -5 0.5 -13.5t0.5 -19.5v-25.5t0.5 -30t0.5 -34v-35.5v-436h-82v700h78l236 -189q174 -147 179 -147h1v4q0 4 -0.5 11t-0.5 17v22.5t-0.5 27t-0.5 32
v34.5v188z" />
    <glyph glyph-name="Ncaron.ss02" horiz-adv-x="760" 
d="M220 869l167 -141l166 141l-41 43l-125 -105l-125 105zM585 700h82v-700h-82v267l-282 222q-30 25 -62.5 52.5t-49.5 42.5l-17 14h-1v-4q0 -5 0.5 -13.5t0.5 -19.5v-25.5t0.5 -30t0.5 -34v-35.5v-436h-82v700h78l236 -189q174 -147 179 -147h1v4q0 4 -0.5 11t-0.5 17
v22.5t-0.5 27t-0.5 32v34.5v188z" />
    <glyph glyph-name="Ncommaaccent.ss02" horiz-adv-x="760" 
d="M585 700h82v-700h-82v267l-282 222q-30 25 -62.5 52.5t-49.5 42.5l-17 14h-1v-4q0 -5 0.5 -13.5t0.5 -19.5v-25.5t0.5 -30t0.5 -34v-35.5v-436h-82v700h78l236 -189q174 -147 179 -147h1v4q0 4 -0.5 11t-0.5 17v22.5t-0.5 27t-0.5 32v34.5v188zM379 -138l10 4l-10 1
q-16 0 -29 13t-13 33q0 21 14 34.5t35 13.5t35 -16.5t14 -41.5q0 -41 -22 -82.5t-54 -71.5h-35q22 21 38.5 53t16.5 60z" />
    <glyph glyph-name="Ntilde.ss02" horiz-adv-x="760" 
d="M499 861h66q1 -45 -30 -74.5t-80 -29.5q-31 0 -72.5 29t-61.5 29q-22 0 -36 -13.5t-14 -33.5h-66q0 45 31 74.5t79 29.5q35 0 76 -29t59 -29q21 0 35 13.5t14 33.5zM585 700h82v-700h-82v267l-282 222q-30 25 -62.5 52.5t-49.5 42.5l-17 14h-1v-4q0 -5 0.5 -13.5
t0.5 -19.5v-25.5t0.5 -30t0.5 -34v-35.5v-436h-82v700h78l236 -189q174 -147 179 -147h1v4q0 4 -0.5 11t-0.5 17v22.5t-0.5 27t-0.5 32v34.5v188z" />
    <glyph glyph-name="Oacute.loclPLK" horiz-adv-x="814" 
d="M467 937l62 -35l-108 -168l-53 31zM44 350q0 157 105.5 260.5t257.5 103.5q153 0 258.5 -103.5t105.5 -260.5t-105.5 -260.5t-258.5 -103.5q-152 0 -257.5 103.5t-105.5 260.5zM128 350q0 -125 79.5 -204.5t199.5 -79.5t199.5 79.5t79.5 204.5q0 126 -79.5 205t-199.5 79
q-121 0 -200 -79t-79 -205z" />
    <glyph glyph-name="Q.ss01" horiz-adv-x="831" 
d="M708 80h79v-80h-382q-152 0 -256.5 101.5t-104.5 255.5t105 255.5t257 101.5t257.5 -102t105.5 -255q0 -95 -46.5 -170t-123.5 -113l1 -1l2 1q3 0 7 0.5t10.5 1t15.5 1.5t19.5 1.5t24.5 1t29 0.5zM128 357q0 -122 80 -199.5t198 -77.5q117 0 197.5 77.5t80.5 199.5
q0 123 -80.5 200t-197.5 77q-119 0 -198.5 -77t-79.5 -200z" />
    <glyph glyph-name="Sacute.loclPLK" horiz-adv-x="596" 
d="M357 937l62 -35l-108 -168l-53 31zM547 527l-78 -21q-11 63 -59.5 99.5t-115.5 36.5q-70 0 -113.5 -31t-43.5 -83q0 -21 10.5 -38.5t24.5 -29t40 -22.5t46 -17.5t52 -16.5q11 -3 17 -5q38 -11 62.5 -20t60 -27t56.5 -38t36.5 -52.5t15.5 -71.5q0 -89 -71 -146.5
t-185 -57.5q-109 0 -179.5 57t-87.5 149l79 21q8 -65 58.5 -109t132.5 -44q76 0 121.5 36t45.5 92q0 21 -6 38.5t-21 31.5t-27.5 23.5t-38 19.5t-39.5 14.5t-45 13.5t-43 13q-34 11 -52.5 17.5t-50.5 22.5t-49.5 33t-31.5 45.5t-14 63.5q0 82 69 136t174 54q95 0 164 -51.5
t86 -135.5z" />
    <glyph glyph-name="Y.ss05" horiz-adv-x="656" 
d="M640 700l-254 -332h127v-68h-145v-300h-81v300h-142v68h124l-253 332h93l176 -229q6 -8 18 -23.5t19 -23.5l6 -8h1q1 0 42 55l175 229h94z" />
    <glyph glyph-name="Yacute.ss05" horiz-adv-x="656" 
d="M475 842l-219 -104l-26 46l215 116zM640 700l-254 -332h127v-68h-145v-300h-81v300h-142v68h124l-253 332h93l176 -229q6 -8 18 -23.5t19 -23.5l6 -8h1q1 0 42 55l175 229h94z" />
    <glyph glyph-name="Ycircumflex.ss05" horiz-adv-x="656" 
d="M326 847l-125 -105l-42 43l167 141l166 -141l-41 -43zM640 700l-254 -332h127v-68h-145v-300h-81v300h-142v68h124l-253 332h93l176 -229q6 -8 18 -23.5t19 -23.5l6 -8h1q1 0 42 55l175 229h94z" />
    <glyph glyph-name="Ydieresis.ss05" horiz-adv-x="656" 
d="M207 765q-21 0 -35 14t-14 35q0 20 14 34t35 14q20 0 34.5 -14t14.5 -34q0 -21 -14.5 -35t-34.5 -14zM443 765q-20 0 -34.5 14t-14.5 35q0 20 14.5 34t34.5 14q21 0 35 -14t14 -34q0 -21 -14 -35t-35 -14zM640 700l-254 -332h127v-68h-145v-300h-81v300h-142v68h124
l-253 332h93l176 -229q6 -8 18 -23.5t19 -23.5l6 -8h1q1 0 42 55l175 229h94z" />
    <glyph glyph-name="Ygrave.ss05" horiz-adv-x="656" 
d="M409 784l-26 -46l-219 104l31 58zM640 700l-254 -332h127v-68h-145v-300h-81v300h-142v68h124l-253 332h93l176 -229q6 -8 18 -23.5t19 -23.5l6 -8h1q1 0 42 55l175 229h94z" />
    <glyph glyph-name="Zacute.loclPLK" horiz-adv-x="690" 
d="M404 937l62 -35l-108 -168l-53 31zM630 700v-76l-410 -491q-13 -15 -26 -29.5t-20 -21.5l-6 -7l1 -1h5q4 1 12.5 1.5t19 0.5t25 0.5t28.5 0.5h371v-77h-570v76l416 494q9 10 22 23.5t22 22.5l9 8l-1 1h-4q-5 0 -13.5 -0.5t-19 -1t-25 -0.5h-29.5h-367v77h560z" />
    <glyph glyph-name="cacute.loclPLK" horiz-adv-x="761" 
d="M457 937l62 -35l-108 -168l-53 31zM725 530l-83 -21q-36 58 -99 91.5t-136 33.5q-121 0 -200 -79t-79 -205q0 -125 80 -204t199 -79q80 0 146 39.5t101 105.5l81 -22q-44 -94 -131.5 -149t-196.5 -55q-152 0 -257.5 103.5t-105.5 260.5t105.5 260.5t257.5 103.5
q102 0 186 -49.5t132 -134.5z" />
    <glyph glyph-name="dotlessj.ss04" horiz-adv-x="655" 
d="M180 700h401v-410q0 -144 -77 -224.5t-216 -80.5q-97 0 -171.5 50.5t-102.5 130.5l81 22q21 -59 73 -92.5t120 -33.5q102 0 156.5 59t54.5 164v338h-319v77z" />
    <glyph glyph-name="i.ss03" horiz-adv-x="437" 
d="M259 73h134v-73h-349v73h133v554h-129v73h341v-73h-130v-554z" />
    <glyph glyph-name="iacute.ss03" horiz-adv-x="437" 
d="M366 842l-219 -104l-26 46l215 116zM259 73h134v-73h-349v73h133v554h-129v73h341v-73h-130v-554z" />
    <glyph glyph-name="icircumflex.ss03" horiz-adv-x="437" 
d="M217 847l-125 -105l-42 43l167 141l166 -141l-41 -43zM259 73h134v-73h-349v73h133v554h-129v73h341v-73h-130v-554z" />
    <glyph glyph-name="idieresis.ss03" horiz-adv-x="437" 
d="M98 765q-21 0 -35 14t-14 35q0 20 14 34t35 14q20 0 34.5 -14t14.5 -34q0 -21 -14.5 -35t-34.5 -14zM334 765q-20 0 -34.5 14t-14.5 35q0 20 14.5 34t34.5 14q21 0 35 -14t14 -34q0 -21 -14 -35t-35 -14zM259 73h134v-73h-349v73h133v554h-129v73h341v-73h-130v-554z" />
    <glyph glyph-name="idotaccent.ss03" horiz-adv-x="437" 
d="M219 765q-20 0 -34.5 14t-14.5 34t14.5 34.5t34.5 14.5t34 -14.5t14 -34.5t-14 -34t-34 -14zM259 73h134v-73h-349v73h133v554h-129v73h341v-73h-130v-554z" />
    <glyph glyph-name="igrave.ss03" horiz-adv-x="437" 
d="M300 784l-26 -46l-219 104l31 58zM259 73h134v-73h-349v73h133v554h-129v73h341v-73h-130v-554z" />
    <glyph glyph-name="ij.ss03" horiz-adv-x="1080" 
d="M259 627v-554h134v-73h-349v73h133v554h-129v73h341v-73h-130zM924 700h82v-410q0 -144 -77 -224.5t-216 -80.5q-97 0 -171.5 50.5t-102.5 130.5l81 22q21 -59 73 -92.5t120 -33.5q102 0 156.5 59t54.5 164v415z" />
    <glyph glyph-name="ij.ss03.ss04" horiz-adv-x="1081" 
d="M259 627v-554h134v-73h-349v73h133v554h-129v73h341v-73h-130zM606 700h401v-410q0 -144 -77 -224.5t-216 -80.5q-97 0 -171.5 50.5t-102.5 130.5l81 22q21 -59 73 -92.5t120 -33.5q102 0 156.5 59t54.5 164v338h-319v77z" />
    <glyph glyph-name="ij.ss04" horiz-adv-x="912" 
d="M93 0v700h82v-700h-82zM437 700h401v-410q0 -144 -77 -224.5t-216 -80.5q-97 0 -171.5 50.5t-102.5 130.5l81 22q21 -59 73 -92.5t120 -33.5q102 0 156.5 59t54.5 164v338h-319v77z" />
    <glyph glyph-name="imacron.ss03" horiz-adv-x="437" 
d="M389 843v-64h-341v64h341zM259 73h134v-73h-349v73h133v554h-129v73h341v-73h-130v-554z" />
    <glyph glyph-name="iogonek.ss03" horiz-adv-x="437" 
d="M393 0h-184q-55 0 -96 -25.5t-41 -79.5q0 -35 23.5 -59t63.5 -24q72 0 103 70l47 -26q-46 -97 -149 -97q-65 0 -106.5 37.5t-41.5 98.5q0 65 47 105h-15v73h133v554h-129v73h341v-73h-130v-554h134v-73z" />
    <glyph glyph-name="j.ss04" horiz-adv-x="655" 
d="M180 700h401v-410q0 -144 -77 -224.5t-216 -80.5q-97 0 -171.5 50.5t-102.5 130.5l81 22q21 -59 73 -92.5t120 -33.5q102 0 156.5 59t54.5 164v338h-319v77z" />
    <glyph glyph-name="jcircumflex.ss04" horiz-adv-x="655" 
d="M376 847l-125 -105l-42 43l167 141l166 -141l-41 -43zM180 700h401v-410q0 -144 -77 -224.5t-216 -80.5q-97 0 -171.5 50.5t-102.5 130.5l81 22q21 -59 73 -92.5t120 -33.5q102 0 156.5 59t54.5 164v338h-319v77z" />
    <glyph glyph-name="n.ss02" horiz-adv-x="760" 
d="M585 700h82v-700h-82v267l-282 222q-30 25 -62.5 52.5t-49.5 42.5l-17 14h-1v-4q0 -5 0.5 -13.5t0.5 -19.5v-25.5t0.5 -30t0.5 -34v-35.5v-436h-82v700h78l236 -189q174 -147 179 -147h1v4q0 4 -0.5 11t-0.5 17v22.5t-0.5 27t-0.5 32v34.5v188z" />
    <glyph glyph-name="nacute.loclPLK" horiz-adv-x="760" 
d="M437 937l62 -35l-108 -168l-53 31zM585 700h82v-700h-77l-311 419q-25 35 -52 73t-40 56l-13 18h-1l1 -24q0 -25 0.5 -76t0.5 -99v-367h-82v700h77l311 -418q23 -30 49.5 -67t41.5 -57l14 -20h1l-1 26q0 26 -0.5 76t-0.5 92v368z" />
    <glyph glyph-name="nacute.loclPLK.ss02" horiz-adv-x="760" 
d="M442 937l62 -35l-108 -168l-53 31zM585 700h82v-700h-82v267l-282 222q-30 25 -62.5 52.5t-49.5 42.5l-17 14h-1v-4q0 -5 0.5 -13.5t0.5 -19.5v-25.5t0.5 -30t0.5 -34v-35.5v-436h-82v700h78l236 -189q174 -147 179 -147h1v4q0 4 -0.5 11t-0.5 17v22.5t-0.5 27t-0.5 32
v34.5v188z" />
    <glyph glyph-name="nacute.ss02" horiz-adv-x="760" 
d="M504 900l30 -58l-219 -104l-26 46zM585 700h82v-700h-82v267l-282 222q-30 25 -62.5 52.5t-49.5 42.5l-17 14h-1v-4q0 -5 0.5 -13.5t0.5 -19.5v-25.5t0.5 -30t0.5 -34v-35.5v-436h-82v700h78l236 -189q174 -147 179 -147h1v4q0 4 -0.5 11t-0.5 17v22.5t-0.5 27t-0.5 32
v34.5v188z" />
    <glyph glyph-name="ncaron.ss02" horiz-adv-x="760" 
d="M220 869l167 -141l166 141l-41 43l-125 -105l-125 105zM585 700h82v-700h-82v267l-282 222q-30 25 -62.5 52.5t-49.5 42.5l-17 14h-1v-4q0 -5 0.5 -13.5t0.5 -19.5v-25.5t0.5 -30t0.5 -34v-35.5v-436h-82v700h78l236 -189q174 -147 179 -147h1v4q0 4 -0.5 11t-0.5 17
v22.5t-0.5 27t-0.5 32v34.5v188z" />
    <glyph glyph-name="ncommaaccent.ss02" horiz-adv-x="760" 
d="M585 700h82v-700h-82v267l-282 222q-30 25 -62.5 52.5t-49.5 42.5l-17 14h-1v-4q0 -5 0.5 -13.5t0.5 -19.5v-25.5t0.5 -30t0.5 -34v-35.5v-436h-82v700h78l236 -189q174 -147 179 -147h1v4q0 4 -0.5 11t-0.5 17v22.5t-0.5 27t-0.5 32v34.5v188zM379 -138l10 4l-10 1
q-16 0 -29 13t-13 33q0 21 14 34.5t35 13.5t35 -16.5t14 -41.5q0 -41 -22 -82.5t-54 -71.5h-35q22 21 38.5 53t16.5 60z" />
    <glyph glyph-name="ntilde.ss02" horiz-adv-x="760" 
d="M499 861h66q1 -45 -30 -74.5t-80 -29.5q-31 0 -72.5 29t-61.5 29q-22 0 -36 -13.5t-14 -33.5h-66q0 45 31 74.5t79 29.5q35 0 76 -29t59 -29q21 0 35 13.5t14 33.5zM585 700h82v-700h-82v267l-282 222q-30 25 -62.5 52.5t-49.5 42.5l-17 14h-1v-4q0 -5 0.5 -13.5
t0.5 -19.5v-25.5t0.5 -30t0.5 -34v-35.5v-436h-82v700h78l236 -189q174 -147 179 -147h1v4q0 4 -0.5 11t-0.5 17v22.5t-0.5 27t-0.5 32v34.5v188z" />
    <glyph glyph-name="oacute.loclPLK" horiz-adv-x="814" 
d="M467 937l62 -35l-108 -168l-53 31zM44 350q0 157 105.5 260.5t257.5 103.5q153 0 258.5 -103.5t105.5 -260.5t-105.5 -260.5t-258.5 -103.5q-152 0 -257.5 103.5t-105.5 260.5zM128 350q0 -125 79.5 -204.5t199.5 -79.5t199.5 79.5t79.5 204.5q0 126 -79.5 205t-199.5 79
q-121 0 -200 -79t-79 -205z" />
    <glyph glyph-name="q.ss01" horiz-adv-x="831" 
d="M708 80h79v-80h-382q-152 0 -256.5 101.5t-104.5 255.5t105 255.5t257 101.5t257.5 -102t105.5 -255q0 -95 -46.5 -170t-123.5 -113l1 -1l2 1q3 0 7 0.5t10.5 1t15.5 1.5t19.5 1.5t24.5 1t29 0.5zM128 357q0 -122 80 -199.5t198 -77.5q117 0 197.5 77.5t80.5 199.5
q0 123 -80.5 200t-197.5 77q-119 0 -198.5 -77t-79.5 -200z" />
    <glyph glyph-name="sacute.loclPLK" horiz-adv-x="596" 
d="M357 937l62 -35l-108 -168l-53 31zM547 527l-78 -21q-11 63 -59.5 99.5t-115.5 36.5q-70 0 -113.5 -31t-43.5 -83q0 -21 10.5 -38.5t24.5 -29t40 -22.5t46 -17.5t52 -16.5q11 -3 17 -5q38 -11 62.5 -20t60 -27t56.5 -38t36.5 -52.5t15.5 -71.5q0 -89 -71 -146.5
t-185 -57.5q-109 0 -179.5 57t-87.5 149l79 21q8 -65 58.5 -109t132.5 -44q76 0 121.5 36t45.5 92q0 21 -6 38.5t-21 31.5t-27.5 23.5t-38 19.5t-39.5 14.5t-45 13.5t-43 13q-34 11 -52.5 17.5t-50.5 22.5t-49.5 33t-31.5 45.5t-14 63.5q0 82 69 136t174 54q95 0 164 -51.5
t86 -135.5z" />
    <glyph glyph-name="y.ss05" horiz-adv-x="656" 
d="M640 700l-254 -332h127v-68h-145v-300h-81v300h-142v68h124l-253 332h93l176 -229q6 -8 18 -23.5t19 -23.5l6 -8h1q1 0 42 55l175 229h94z" />
    <glyph glyph-name="yacute.ss05" horiz-adv-x="656" 
d="M475 842l-219 -104l-26 46l215 116zM640 700l-254 -332h127v-68h-145v-300h-81v300h-142v68h124l-253 332h93l176 -229q6 -8 18 -23.5t19 -23.5l6 -8h1q1 0 42 55l175 229h94z" />
    <glyph glyph-name="ycircumflex.ss05" horiz-adv-x="656" 
d="M326 847l-125 -105l-42 43l167 141l166 -141l-41 -43zM640 700l-254 -332h127v-68h-145v-300h-81v300h-142v68h124l-253 332h93l176 -229q6 -8 18 -23.5t19 -23.5l6 -8h1q1 0 42 55l175 229h94z" />
    <glyph glyph-name="ydieresis.ss05" horiz-adv-x="656" 
d="M207 765q-21 0 -35 14t-14 35q0 20 14 34t35 14q20 0 34.5 -14t14.5 -34q0 -21 -14.5 -35t-34.5 -14zM443 765q-20 0 -34.5 14t-14.5 35q0 20 14.5 34t34.5 14q21 0 35 -14t14 -34q0 -21 -14 -35t-35 -14zM640 700l-254 -332h127v-68h-145v-300h-81v300h-142v68h124
l-253 332h93l176 -229q6 -8 18 -23.5t19 -23.5l6 -8h1q1 0 42 55l175 229h94z" />
    <glyph glyph-name="ygrave.ss05" horiz-adv-x="656" 
d="M409 784l-26 -46l-219 104l31 58zM640 700l-254 -332h127v-68h-145v-300h-81v300h-142v68h124l-253 332h93l176 -229q6 -8 18 -23.5t19 -23.5l6 -8h1q1 0 42 55l175 229h94z" />
    <glyph glyph-name="zacute.loclPLK" horiz-adv-x="690" 
d="M404 937l62 -35l-108 -168l-53 31zM630 700v-76l-410 -491q-13 -15 -26 -29.5t-20 -21.5l-6 -7l1 -1h5q4 1 12.5 1.5t19 0.5t25 0.5t28.5 0.5h371v-77h-570v76l416 494q9 10 22 23.5t22 22.5l9 8l-1 1h-4q-5 0 -13.5 -0.5t-19 -1t-25 -0.5h-29.5h-367v77h560z" />
    <glyph glyph-name="zero.slsh" horiz-adv-x="718" 
d="M359 714q97 0 170 -51t109 -133t36 -180t-36 -180t-109 -133t-170 -51q-145 0 -230 105.5t-85 258.5t85 258.5t230 105.5zM196 138l290 457q-53 39 -127 39q-111 0 -171 -81.5t-60 -202.5q0 -134 68 -212zM523 561l-290 -457q54 -38 126 -38q110 0 170.5 81.5t60.5 202.5
q0 132 -67 211z" />
    <glyph glyph-name="zero.sups" horiz-adv-x="388" 
d="M194 463q-81 0 -130.5 58t-49.5 145t49.5 145.5t130.5 58.5t130.5 -58.5t49.5 -145.5t-49.5 -145t-130.5 -58zM194 522q54 0 87 42t33 102q0 61 -33 103t-87 42t-87 -42t-33 -103q0 -60 33 -102t87 -42z" />
    <glyph glyph-name="four.sups" horiz-adv-x="340" 
d="M318 615v-50h-51v-94h-53v94h-204v40l215 257h42v-247h51zM136 614h78v85q0 13 0.5 26.5t1 23t0.5 17.5v12l1 4h-1l-8 -11q-8 -11 -21.5 -29t-24.5 -30l-51 -59q-7 -9 -18 -18.5t-17 -15.5l-7 -6l1 -1h4q3 0 9.5 0.5t14 1t18 0.5h20.5z" />
    <glyph glyph-name="five.sups" horiz-adv-x="327" 
d="M83 697l1 -1q28 35 80 35q63 0 102 -37t39 -96q0 -58 -40 -96.5t-101 -38.5q-60 0 -98 33t-46 84l53 14q5 -37 27.5 -58.5t61.5 -21.5q40 0 64.5 23.5t24.5 61.5t-24.5 62t-64.5 24q-30 0 -51.5 -13t-29.5 -31l-48 13l34 208h215v-52h-171l-10 -51q-2 -11 -5 -21.5
t-5 -17t-4 -12t-3 -8.5z" />
    <glyph glyph-name="six.sups" horiz-adv-x="329" 
d="M224 862l-131 -166l1 -1q28 30 52 36q10 3 22 3q61 0 100 -38.5t39 -96.5q0 -60 -41 -98t-104 -38q-64 0 -106 38t-42 99q0 66 52 137l97 125h61zM161 514q40 0 65 24t26 62q1 39 -24.5 62.5t-66.5 23.5t-66.5 -23.5t-25.5 -62.5q0 -38 25.5 -62t66.5 -24z" />
    <glyph glyph-name="seven.sups" horiz-adv-x="297" 
d="M10 862h282v-35l-200 -356h-58l166 294q7 13 15.5 24t12.5 17l5 5l-1 1h-4q-3 0 -9.5 -0.5t-13.5 -1t-16.5 -0.5h-18.5h-160v52z" />
    <glyph glyph-name="eight.sups" horiz-adv-x="319" 
d="M219 679v-1q31 -6 58.5 -32t27.5 -66q0 -51 -40.5 -83.5t-105.5 -33.5q-64 1 -104.5 33.5t-40.5 83.5q0 40 27.5 66t58.5 32v1q-22 4 -46 28.5t-24 60.5q0 44 36.5 73t92.5 29q57 0 93.5 -29t36.5 -73q0 -36 -24.5 -60.5t-45.5 -28.5zM79 767q0 -28 22.5 -45.5
t57.5 -16.5q36 0 58.5 17t22.5 45q0 27 -22.5 43.5t-58.5 16.5q-35 0 -57.5 -17t-22.5 -43zM66 581q0 -32 26 -52t67 -21q42 1 68 21t26 52q0 30 -26.5 49.5t-67.5 19.5t-67 -19.5t-26 -49.5z" />
    <glyph glyph-name="nine.sups" horiz-adv-x="321" 
d="M84 471l141 162l-1 1q-29 -34 -71 -34q-62 0 -100.5 38.5t-38.5 96.5q0 60 41 97.5t104 37.5q64 0 106 -38t42 -99q0 -74 -71 -158l-87 -104h-65zM159 820q-40 0 -65 -24t-27 -63q0 -38 25.5 -62t66.5 -24t66.5 24t25.5 62q0 39 -25.5 63t-66.5 24z" />
    <glyph glyph-name="zero.tf" 
d="M349 714q72 0 128.5 -32t89.5 -85t50 -116t17 -131t-17 -131t-50 -116t-89.5 -85t-128.5 -32t-128.5 32t-89.5 85t-50 116t-17 131t17 131t50 116t89.5 85t128.5 32zM349 634q-55 0 -96 -26.5t-63 -70t-32 -90.5t-10 -97t10 -97t32 -90.5t63 -70t96 -26.5t96 26.5t63 70
t32 90.5t10 97t-10 97t-32 90.5t-63 70t-96 26.5z" />
    <glyph glyph-name="one.tf" 
d="M423 77h172v-77h-427v77h173v398q0 21 1 48t2 43v15h-1l-9 -10q-10 -10 -23.5 -25t-21.5 -23l-89 -88l-51 50l216 215h58v-623z" />
    <glyph glyph-name="two.tf" 
d="M169 507l-76 21q27 91 93.5 138.5t161.5 47.5q104 0 170.5 -62t66.5 -157q0 -21 -3.5 -41t-7.5 -35.5t-14.5 -34t-16 -29t-22 -27.5t-21.5 -23.5t-25.5 -23.5t-24.5 -20t-27 -20.5t-24 -18.5l-191 -147l1 -1h3q3 0 9 0.5t14 1t19 0.5t23.5 0.5t28.5 0.5h32h246v-77h-486
v67l319 267q85 71 85 160q0 64 -43.5 105.5t-112.5 41.5q-70 0 -115 -36t-62 -98z" />
    <glyph glyph-name="three.tf" 
d="M178 506l-74 20q20 88 85.5 138t162.5 50q117 0 177.5 -56t60.5 -133q0 -69 -45.5 -113.5t-106.5 -47.5v-1q66 -2 113.5 -45t47.5 -116q0 -97 -69 -156.5t-177 -59.5q-99 0 -173 55.5t-90 144.5l74 20q11 -66 62.5 -106t124.5 -40q77 0 120.5 41.5t43.5 104.5
q0 60 -45.5 91.5t-123.5 31.5h-62v67h63q159 0 159 125q0 47 -39 83.5t-119 36.5q-133 0 -170 -135z" />
    <glyph glyph-name="four.tf" 
d="M618 249v-73h-95v-176h-77v176h-375v59l388 465h64v-451h95zM282 249h164v186v33.5t0.5 31.5t1 27.5t0.5 24t0.5 18t0.5 12.5v4h-1l-10 -14q-11 -13 -30 -38t-36 -45l-144 -171q-21 -24 -37 -41.5t-21 -22.5l-4 -5l1 -1h22t47.5 0.5t45.5 0.5z" />
    <glyph glyph-name="five.tf" 
d="M200 397l1 -1q17 23 57.5 42t92.5 19q106 0 176.5 -66t70.5 -167q0 -102 -70.5 -170t-176.5 -68q-102 0 -171 54t-87 139l75 20q13 -63 60 -102t121 -39q72 0 119.5 47.5t47.5 119.5t-47.5 119.5t-119.5 47.5q-120 0 -157 -88l-71 19l61 377h374v-77h-312l-19 -107
q-6 -33 -12.5 -62.5t-9.5 -43.5z" />
    <glyph glyph-name="six.tf" 
d="M449 700l-223 -294l1 -1q48 59 137 59q109 0 177 -68.5t68 -170.5q0 -104 -74 -171.5t-187 -67.5q-112 0 -185.5 68t-73.5 175q0 65 23 120.5t74 123.5l173 227h90zM351 59q79 0 128.5 47t51.5 123q1 74 -48.5 120t-131.5 46q-81 0 -130.5 -46t-49.5 -120q0 -76 50 -123
t130 -47z" />
    <glyph glyph-name="seven.tf" 
d="M110 700h499v-50l-365 -650h-88l294 519q13 24 29.5 50t26.5 41l9 14l-1 1h-6q-6 0 -16.5 -0.5t-22 -1t-25.5 -0.5h-25h-309v77z" />
    <glyph glyph-name="eight.tf" 
d="M442 373v-1q68 -8 118 -56.5t50 -122.5q0 -91 -72.5 -148.5t-188.5 -58.5q-116 1 -188.5 58.5t-72.5 148.5q0 75 50.5 123.5t117.5 55.5v1q-42 4 -89.5 47t-47.5 110q0 78 64.5 131t165.5 53t165.5 -53t64.5 -131q0 -67 -47.5 -110t-89.5 -47zM191 527q0 -53 44 -86.5
t114 -32.5q70 0 114 33.5t44 85.5q0 55 -44.5 90t-113.5 35q-70 0 -114 -35t-44 -90zM166 195q0 -65 49.5 -103.5t133.5 -39.5q84 1 133.5 39.5t49.5 103.5q0 63 -50 100t-133 37q-84 0 -133.5 -37t-49.5 -100z" />
    <glyph glyph-name="nine.tf" 
d="M205 0l252 294l-1 1q-51 -59 -139 -59q-116 0 -183 67.5t-67 169.5q0 108 75 174.5t189 66.5t188 -64.5t74 -179.5q0 -67 -31.5 -133.5t-105.5 -153.5l-157 -183h-94zM329 641q-77 0 -129.5 -44t-52.5 -127q0 -81 52.5 -123.5t129.5 -42.5q79 0 130.5 44.5t51.5 121.5
q0 84 -52 127.5t-130 43.5z" />
    <glyph glyph-name="zero.slsh.tf" 
d="M349 714q72 0 128.5 -32t89.5 -85t50 -116t17 -131t-17 -131t-50 -116t-89.5 -85t-128.5 -32t-128.5 32t-89.5 85t-50 116t-17 131t17 131t50 116t89.5 85t128.5 32zM199 147l275 436q-49 51 -125 51q-55 0 -96 -26.5t-63 -70t-32 -90.5t-10 -97q0 -124 51 -203zM507 540
l-274 -432q47 -42 116 -42q55 0 96 26.5t63 70t32 90.5t10 97q0 112 -43 190z" />
    <glyph glyph-name="zero.slsh.numr" horiz-adv-x="384" 
d="M194 708q81 0 130.5 -58.5t49.5 -145.5t-49.5 -145t-130.5 -58t-130.5 58t-49.5 145t49.5 145.5t130.5 58.5zM107 402l146 230q-26 17 -59 17q-54 0 -87 -42t-33 -103t33 -102zM282 606l-146 -230q26 -16 58 -16q54 0 87 42t33 102t-32 102z" />
    <glyph glyph-name="zero.slsh.dnom" horiz-adv-x="384" 
d="M194 395q81 0 130.5 -58.5t49.5 -145.5t-49.5 -145t-130.5 -58t-130.5 58t-49.5 145t49.5 145.5t130.5 58.5zM107 89l146 230q-26 17 -59 17q-54 0 -87 -42t-33 -103t33 -102zM282 293l-146 -230q26 -16 58 -16q54 0 87 42t33 102t-32 102z" />
    <glyph glyph-name="zero.slsh.sups" horiz-adv-x="384" 
d="M194 870q81 0 130.5 -58.5t49.5 -145.5t-49.5 -145t-130.5 -58t-130.5 58t-49.5 145t49.5 145.5t130.5 58.5zM107 564l146 230q-26 17 -59 17q-54 0 -87 -42t-33 -103t33 -102zM282 768l-146 -230q26 -16 58 -16q54 0 87 42t33 102t-32 102z" />
    <glyph glyph-name="zero.dnom" horiz-adv-x="388" 
d="M194 -8q-81 0 -130.5 58t-49.5 145t49.5 145.5t130.5 58.5t130.5 -58.5t49.5 -145.5t-49.5 -145t-130.5 -58zM194 51q54 0 87 42t33 102q0 61 -33 103t-87 42t-87 -42t-33 -103q0 -60 33 -102t87 -42z" />
    <glyph glyph-name="one.dnom" horiz-adv-x="222" 
d="M144 391h40v-391h-58v232q0 8 0.5 20t1.5 23t2 21t2 16v6h-1q-1 0 -5 -5.5t-12 -15.5t-16 -17l-47 -46l-37 34z" />
    <glyph glyph-name="two.dnom" horiz-adv-x="329" 
d="M97 46l1 -1q28 7 99 7h107v-52h-277v41l160 128q63 52 63 101q0 32 -24 53.5t-59 21.5q-72 0 -94 -80l-53 14q14 56 53.5 88t94.5 32q59 0 99 -37.5t40 -91.5q0 -66 -72 -125l-82 -64q-13 -10 -27 -18.5t-22 -12.5z" />
    <glyph glyph-name="three.dnom" horiz-adv-x="323" 
d="M78 272l-51 15q10 51 48 81.5t94 30.5q67 0 101.5 -31t34.5 -77q0 -37 -26.5 -61.5t-60.5 -26.5v-1q37 -2 64 -26t27 -63q0 -53 -39.5 -87t-99.5 -34q-58 0 -100.5 33.5t-49.5 86.5l52 14q3 -38 29.5 -60.5t68.5 -22.5q40 0 61.5 20.5t21.5 50.5q0 29 -24 47.5t-62 18.5
h-39v43h39q36 0 59 18.5t23 47.5q0 23 -20 41t-60 18q-75 0 -91 -76z" />
    <glyph glyph-name="four.dnom" horiz-adv-x="340" 
d="M318 144v-50h-51v-94h-53v94h-204v40l215 257h42v-247h51zM136 143h78v85q0 13 0.5 26.5t1 23t0.5 17.5v12l1 4h-1l-8 -11q-8 -11 -21.5 -29t-24.5 -30l-51 -59q-7 -9 -18 -18.5t-17 -15.5l-7 -6l1 -1h4q3 0 9.5 0.5t14 1t18 0.5h20.5z" />
    <glyph glyph-name="five.dnom" horiz-adv-x="327" 
d="M83 226l1 -1q28 35 80 35q63 0 102 -37t39 -96q0 -58 -40 -96.5t-101 -38.5q-60 0 -98 32.5t-46 84.5l53 14q5 -37 27.5 -58.5t61.5 -21.5q40 0 64.5 23.5t24.5 61.5t-24.5 62t-64.5 24q-30 0 -51.5 -13t-29.5 -31l-48 12l34 209h215v-52h-171l-10 -52q-2 -11 -5 -21
t-5 -17t-4 -12t-3 -8z" />
    <glyph glyph-name="six.dnom" horiz-adv-x="329" 
d="M224 391l-131 -166l1 -1q35 38 74 38q62 0 100.5 -38.5t38.5 -96.5q0 -60 -41 -97.5t-104 -37.5q-64 0 -106 38t-42 99q0 66 52 136l97 126h61zM161 42q40 0 65 24t26 63t-24.5 62.5t-66.5 23.5t-66.5 -23.5t-25.5 -62.5t25.5 -63t66.5 -24z" />
    <glyph glyph-name="seven.dnom" horiz-adv-x="297" 
d="M10 391h282v-36l-200 -355h-58l166 294q7 13 15.5 24t12.5 16l5 6l-1 1h-4q-3 0 -9.5 -0.5t-13.5 -1t-16.5 -0.5h-18.5h-160v52z" />
    <glyph glyph-name="eight.dnom" horiz-adv-x="319" 
d="M219 207v-1q31 -5 58.5 -31t27.5 -67q0 -50 -41 -83t-105 -33t-104.5 33t-40.5 83q0 41 27.5 67t58.5 31v1q-21 4 -45.5 28.5t-24.5 61.5q0 44 36.5 73t92.5 29q57 0 93.5 -29t36.5 -73q0 -36 -24.5 -61t-45.5 -29zM79 296q0 -28 22.5 -45.5t57.5 -16.5q36 0 58.5 17
t22.5 45q0 26 -22.5 43t-58.5 17q-35 0 -57.5 -17t-22.5 -43zM66 110q0 -33 25.5 -52.5t67.5 -20.5q42 1 68 21t26 52q0 29 -26.5 49t-67.5 20t-67 -19.5t-26 -49.5z" />
    <glyph glyph-name="nine.dnom" horiz-adv-x="321" 
d="M84 0l141 162l-1 1q-30 -35 -71 -35q-61 0 -100 38.5t-39 96.5q0 60 41 98t104 38q64 0 106 -38t42 -99q0 -73 -71 -159l-87 -103h-65zM159 349q-40 0 -65 -24t-27 -63q0 -39 25.5 -62.5t66.5 -23.5t66.5 23.5t25.5 62.5t-25.5 63t-66.5 24z" />
    <glyph glyph-name="zero.numr" horiz-adv-x="388" 
d="M194 301q-81 0 -130.5 58t-49.5 145t49.5 145.5t130.5 58.5t130.5 -58.5t49.5 -145.5t-49.5 -145t-130.5 -58zM194 360q54 0 87 42t33 102q0 61 -33 103t-87 42t-87 -42t-33 -103q0 -60 33 -102t87 -42z" />
    <glyph glyph-name="one.numr" horiz-adv-x="222" 
d="M144 700h40v-391h-58v233q0 8 0.5 19.5t1.5 22.5t2 21t2 16v6h-1q-1 0 -5 -5.5t-12 -15t-16 -16.5l-47 -47l-37 34z" />
    <glyph glyph-name="two.numr" horiz-adv-x="329" 
d="M97 356l1 -1l16 1q15 2 38.5 3.5t44.5 1.5h107v-52h-277v41l160 129q63 50 63 100q0 33 -23.5 54t-59.5 21q-40 0 -61.5 -20.5t-32.5 -58.5l-53 14q14 56 53.5 87.5t94.5 31.5q59 0 99 -37t40 -91q0 -67 -72 -126l-82 -64q-13 -10 -27 -18t-22 -12z" />
    <glyph glyph-name="three.numr" horiz-adv-x="331" 
d="M78 582l-51 14q10 51 48 81.5t94 30.5q66 0 101 -31t35 -76q0 -37 -26.5 -62t-60.5 -27v-1q38 -2 64.5 -25.5t26.5 -62.5q0 -54 -39.5 -88t-99.5 -34q-58 0 -100.5 34t-49.5 87l52 13q3 -38 29.5 -60.5t68.5 -22.5q40 0 61.5 20.5t21.5 51.5q0 29 -24 47t-62 18h-39v44
h39q36 0 59 18.5t23 46.5q0 23 -20 41.5t-60 18.5q-74 0 -91 -76z" />
    <glyph glyph-name="four.numr" horiz-adv-x="340" 
d="M318 453v-50h-51v-94h-53v94h-204v40l215 257h42v-247h51zM136 452h78v85q0 13 0.5 26.5t1 23t0.5 17.5v12l1 4h-1l-8 -11q-8 -11 -21.5 -29t-24.5 -30l-51 -59q-7 -9 -18 -18.5t-17 -15.5l-7 -6l1 -1h4q3 0 9.5 0.5t14 1t18 0.5h20.5z" />
    <glyph glyph-name="five.numr" horiz-adv-x="327" 
d="M83 535l1 -1q28 35 80 35q63 0 102 -37t39 -96q0 -58 -40 -96.5t-101 -38.5q-60 0 -98 33t-46 84l53 14q5 -37 27.5 -58.5t61.5 -21.5q40 0 64.5 23.5t24.5 61.5t-24.5 62t-64.5 24q-30 0 -51.5 -13t-29.5 -31l-48 13l34 208h215v-52h-171l-10 -51q-2 -11 -5 -21.5
t-5 -17t-4 -12t-3 -8.5z" />
    <glyph glyph-name="six.numr" horiz-adv-x="329" 
d="M224 700l-131 -166l1 -1q28 30 52 36q10 3 22 3q61 0 100 -38.5t39 -96.5q0 -60 -41 -98t-104 -38q-64 0 -106 38t-42 99q0 66 52 137l97 125h61zM161 352q40 0 65 24t26 62q1 39 -24.5 62.5t-66.5 23.5t-66.5 -23.5t-25.5 -62.5q0 -38 25.5 -62t66.5 -24z" />
    <glyph glyph-name="seven.numr" horiz-adv-x="297" 
d="M10 700h282v-35l-200 -356h-58l166 294q7 13 15.5 24t12.5 17l5 5l-1 1h-4q-3 0 -9.5 -0.5t-13.5 -1t-16.5 -0.5h-18.5h-160v52z" />
    <glyph glyph-name="eight.numr" horiz-adv-x="319" 
d="M219 517v-1q31 -6 58.5 -32t27.5 -66q0 -51 -40.5 -83.5t-105.5 -33.5q-64 1 -104.5 33.5t-40.5 83.5q0 40 27.5 66t58.5 32v1q-22 4 -46 28.5t-24 60.5q0 44 36.5 73t92.5 29q57 0 93.5 -29t36.5 -73q0 -36 -24.5 -60.5t-45.5 -28.5zM79 605q0 -28 22.5 -45.5
t57.5 -16.5q36 0 58.5 17t22.5 45q0 27 -22.5 43.5t-58.5 16.5q-35 0 -57.5 -17t-22.5 -43zM66 419q0 -32 26 -52t67 -21q42 1 68 21t26 52q0 30 -26.5 49.5t-67.5 19.5t-67 -19.5t-26 -49.5z" />
    <glyph glyph-name="nine.numr" horiz-adv-x="321" 
d="M84 309l141 162l-1 1q-29 -34 -71 -34q-62 0 -100.5 38.5t-38.5 96.5q0 60 41 97.5t104 37.5q64 0 106 -38t42 -99q0 -74 -71 -158l-87 -104h-65zM159 658q-40 0 -65 -24t-27 -63q0 -38 25.5 -62t66.5 -24t66.5 24t25.5 62q0 39 -25.5 63t-66.5 24z" />
    <glyph glyph-name="dollar.tf" 
d="M594 527l-78 -21q-11 63 -59.5 99.5t-115.5 36.5q-70 0 -113.5 -31t-43.5 -83q0 -21 10.5 -38.5t24.5 -29t40 -22.5t46 -17.5t52 -16.5q11 -3 17 -5q38 -11 62.5 -20t60 -27t56.5 -38t36.5 -52.5t15.5 -71.5q0 -81 -60 -137t-159 -65v-78h-81v79q-91 11 -149.5 66
t-73.5 137l79 21q8 -65 58.5 -109t132.5 -44q76 0 121.5 36t45.5 92q0 21 -6 38.5t-21 31.5t-27.5 23.5t-38 19.5t-39.5 14.5t-45 13.5t-43 13q-34 11 -52.5 17.5t-50.5 22.5t-49.5 33t-31.5 45.5t-14 63.5q0 74 56.5 125.5t147.5 62.5v78h81v-79q80 -11 136.5 -60.5
t71.5 -123.5z" />
    <glyph glyph-name="percent.tf" 
d="M560 700l-169 -328q41 27 94 27q81 0 130.5 -58.5t49.5 -145.5t-49.5 -145t-130.5 -58t-130.5 58t-49.5 145v11l-106 -206h-59l172 333q-45 -32 -102 -32q-81 0 -130.5 58t-49.5 145t49.5 145.5t130.5 58.5t130.5 -58.5t49.5 -145.5q0 -14 -1 -21l112 217h59zM210 360
q54 0 87 42t33 102q0 61 -33 103t-87 42t-87 -42t-33 -103q0 -60 33 -102t87 -42zM485 51q54 0 87 42t33 102q0 61 -33 103t-87 42t-87 -42t-33 -103q0 -60 33 -102t87 -42z" />
    <glyph glyph-name="cent.tf" 
d="M529 261l70 -20q-26 -62 -81 -102.5t-124 -48.5v-104h-68v104q-96 12 -160.5 84.5t-64.5 175.5q0 102 64.5 174.5t160.5 84.5v105h68v-105q65 -8 117.5 -44.5t80.5 -92.5l-71 -19q-52 87 -161 87q-81 0 -132 -52t-51 -138q0 -85 51.5 -137.5t131.5 -52.5q58 0 102 26.5
t67 74.5z" />
    <glyph glyph-name="sterling.tf" 
d="M412 77h203v-77h-518v77q58 12 74.5 56.5t8.5 132.5l-5 56h-72v67h66l-10 103q-8 92 52.5 156t155.5 66q78 2 145.5 -43t92.5 -146l-70 -19q-42 140 -166 135q-63 -2 -99 -46t-29 -109l9 -97h234v-67h-228l5 -54q14 -157 -55 -193l1 -1h6q6 0 16.5 0.5t24.5 1t32.5 0.5
t38 0.5t42.5 0.5h45z" />
    <glyph glyph-name="currency.tf" 
d="M508 549l72 71l42 -43l-71 -71q61 -71 61 -166q0 -90 -55 -159l73 -73l-43 -43l-72 73q-74 -61 -167 -61t-165 61l-73 -73l-42 43l73 73q-55 71 -55 159q0 94 60 167l-71 70l43 43l72 -71q71 55 158 55q91 0 160 -55zM349 532q-79 0 -133.5 -55t-54.5 -135
q0 -81 54.5 -135.5t133.5 -54.5t134 54.5t55 135.5q0 79 -55 134.5t-134 55.5z" />
    <glyph glyph-name="yen.tf" 
d="M661 700l-209 -274h142v-59h-187l-18 -23v-16h205v-59h-205v-269h-81v269h-198v59h198v16l-18 23h-180v59h136l-209 274h93l176 -229q6 -8 18 -23.5t18 -23.5l7 -8h1q1 0 42 55l175 229h94z" />
    <glyph glyph-name="Euro.tf" 
d="M598 211l78 -20q-40 -94 -120 -148.5t-184 -54.5q-120 0 -209.5 78t-113.5 204h-50v58h44q-1 7 -1 22v21h-42v57h49q23 127 112.5 205.5t210.5 78.5q97 0 173.5 -49t119.5 -134l-80 -20q-33 60 -89.5 93.5t-125.5 33.5q-88 0 -153.5 -55.5t-85.5 -152.5h257v-57h-264
q-1 -7 -1 -21q0 -15 1 -22h263v-58h-256q21 -96 86.5 -150.5t152.5 -54.5q75 0 136 39t92 107z" />
    <glyph glyph-name="uni20B9.tf" 
d="M597 700v-65h-128q29 -26 47 -60h81v-64h-60q2 -20 2 -31q0 -95 -66 -156t-170 -63l214 -261h-98l-215 263v65h94q68 0 112 44t44 108q0 16 -3 31h-297v64h268q-45 60 -124 60h-144v65h443z" />
    <glyph glyph-name="colon.case" horiz-adv-x="219" 
d="M110 453q-21 0 -35.5 14.5t-14.5 34.5q0 21 14.5 35.5t35.5 14.5q20 0 34.5 -15t14.5 -35q0 -21 -14.5 -35t-34.5 -14zM110 143q-21 0 -35.5 14.5t-14.5 34.5q0 21 14.5 35.5t35.5 14.5q20 0 34.5 -15t14.5 -35q0 -21 -14.5 -35t-34.5 -14z" />
    <glyph glyph-name="semicolon.case" horiz-adv-x="234" 
d="M122 458q-21 0 -35.5 14.5t-14.5 34.5q0 21 14.5 35.5t35.5 14.5q20 0 34.5 -15t14.5 -35q0 -21 -14.5 -35t-34.5 -14zM116 143l10 5l-10 1q-16 0 -30 13t-14 34t15.5 35t36.5 14t35.5 -16.5t14.5 -42.5q0 -43 -22.5 -85.5t-55.5 -74.5h-36q23 21 39.5 54.5t16.5 62.5z
" />
    <glyph glyph-name="apple" horiz-adv-x="805" 
d="M667 82h44v45q0 91 -4.5 142t-8 61t-9.5 19l-25 29l-11 13l11 12l22 26q8 8 12 19t8.5 62t4.5 146v44h-44q-94 0 -145.5 -4.5t-62 -8.5t-19.5 -12l-20 -17l-17 -16l-18 16l-20 19q-8 7 -19 10.5t-63 8t-147 4.5h-43v-44q0 -93 4 -145t8 -62.5t11 -19.5l24 -27l10 -11
l-10 -12l-24 -27q-7 -8 -11 -18.5t-8 -62.5t-4 -146v-43h43q93 0 145 4t63 8t19 12l27 23l11 10l13 -10l27 -23q8 -8 18.5 -11.5t62 -8t145.5 -4.5zM401 256l-89 -79q-25 -5 -132 -7q4 111 7 132l79 89l-79 89q-3 20 -7 133q98 -2 133 -7l88 -81l91 81q35 5 132 7
q-4 -112 -7 -133l-81 -89l81 -91q4 -36 7 -130q-106 2 -133 7zM127 39l3 12q-4 3 -15 3q-21 0 -21 -17q0 -11 15 -16q9 -3 9 -6q0 -5 -7 -5q-2 0 -14 4l-4 -12q6 -3 16 -3q24 0 24 17q0 11 -14 16q-11 4 -11 7q0 4 7 4q4 0 12 -4zM572 40l4 12q-4 2 -14 2q-13 0 -21 -7.5
t-8 -21.5q0 -26 28 -26q8 0 14 2l-3 12q-3 -3 -9 -3q-15 0 -15 16q0 17 15 17q6 0 9 -3zM631 26q0 12 -7.5 20t-19.5 8t-19.5 -8t-7.5 -20q0 -27 27 -27t27 27zM151 20v-20h14v20l17 33h-16l-8 -23l-7 23h-17zM187 53v-53h13v35l19 -35h15v53h-13v-32l-16 32h-18zM239 42h14
v-42h13v42h14v11h-41v-11zM300 33v20h-15v-53h15v21h18v-21h14v53h-14v-20h-18zM337 53l17 -53h16l17 53h-15l-10 -39l-9 39h-16zM407 0v53h-15v-53h15zM430 21h19v11h-19v10h21v11h-36v-53h36v11h-21v10zM455 53l13 -53h15l7 35l6 -35h16l13 53h-14l-7 -36l-6 36h-15
l-6 -36l-7 36h-15zM682 40v-40h14l-2 53h-19l-9 -34l-8 34h-19l-4 -53h15v40l11 -39h10zM592 26q0 17 12 17q11 0 11 -17q0 -16 -11 -16q-12 0 -12 16zM526 -1q-6 0 -6 6t6 6t6 -6t-6 -6z" />
    </font>
</defs>
</svg>
